<?xml version="1.0" standalone="no"?>
<!DOCTYPE svg PUBLIC "-//W3C//DTD SVG 1.1//EN" "http://www.w3.org/Graphics/SVG/1.1/DTD/svg11.dtd" >
<!--
2021-8-27: Created with FontForge (http://fontforge.org)
-->
<svg xmlns="http://www.w3.org/2000/svg" xmlns:xlink="http://www.w3.org/1999/xlink" version="1.1">
<metadata>
Created by FontForge 20201107 at Fri Aug 27 15:58:42 2021
 By Marie Pelleau

</metadata>
<defs>
<font id="iconfont" horiz-adv-x="512" >
  <font-face 
    font-family="iconfont"
    font-weight="400"
    font-stretch="normal"
    units-per-em="512"
    panose-1="2 0 5 3 0 0 0 0 0 0"
    ascent="448"
    descent="-64"
    bbox="-0.12793 -64.0002 512.128 448.011"
    underline-thickness="25.6"
    underline-position="-51.2"
    unicode-range="U+0020-F14A"
  />
    <missing-glyph />
    <glyph glyph-name="space" unicode=" " horiz-adv-x="200" 
 />
    <glyph glyph-name="archive" unicode="&#xf100;" 
d="M357.914 396.8c0 0 25.4971 0 25.4971 -25.5996h-254.848c0 25.5996 25.4971 25.5996 25.4971 25.5996h203.854zM434.381 320v-25.5996h-356.762v25.5996c0 25.5996 25.4717 25.5996 25.4717 25.5996h305.818s25.4717 0 25.4717 -25.5996zM485.325 294.4
c15.1035 -15.1553 25.9072 -19.2002 19.8906 -51.2002c-6.06738 -31.8975 -35.3018 -206.746 -39.6543 -230.4c-4.78711 -25.958 -31.1553 -25.5996 -31.1553 -25.5996h-356.762s-26.3936 -0.358398 -31.1553 25.5996c-4.35156 23.6543 -33.6123 198.503 -39.6543 230.4
c-6.06738 32 4.73633 36.0449 19.8145 51.2002l15.0781 15.1553v-40.7559h428.545v40.7559zM358.4 140.877v51.123h-25.6006v-51.2002h-153.6v51.2002h-25.6006v-51.123c0 -14.1826 11.4951 -25.6768 25.6768 -25.6768h153.447c14.1816 0 25.6768 11.4941 25.6768 25.6768z
" />
    <glyph glyph-name="back-in-time" unicode="&#xf101;" 
d="M288.273 416.273c123.624 0 223.727 -100.649 223.727 -224.273s-100.103 -224.273 -223.727 -224.273c-51.9658 0 -99.5557 17.5039 -137.846 47.5898l38.8369 41.0254c27.8975 -20.2393 61.8125 -32.2734 99.0088 -32.2734c92.4443 0 167.932 74.9404 167.932 167.932
s-75.4873 168.479 -167.932 168.479c-90.8037 0 -164.649 -72.752 -167.385 -163.009v-5.46973h72.752l-95.1787 -106.667l-98.4619 106.667h65.0938v5.46973c2.73535 121.437 101.744 218.804 223.18 218.804zM260.923 328.752h54.7012v-164.103l62.3594 -62.3584
c-6.56445 -6.56445 -13.6758 -12.0342 -21.334 -16.958l-87.5215 87.5215c-2.73438 2.18848 -4.92285 5.4707 -6.0166 8.75195c-1.6416 3.28223 -2.18848 7.11133 -2.18848 10.3936v136.752z" />
    <glyph glyph-name="bell" unicode="&#xf102;" 
d="M390.464 235.772c6.18034 -13.1335 13.9056 -23.1764 23.1758 -30.1289c9.27083 -6.95312 17.9619 -11.2021 26.0732 -12.7471c8.11198 -1.54492 16.61 -5.98698 25.4941 -13.3262s15.6439 -17.9616 20.2793 -31.8672c8.4974 -23.9486 -5.7946 -55.0433 -42.876 -93.2842
c-37.082 -38.2409 -85.752 -68.5632 -146.01 -90.9668c-63.3483 -22.4036 -120.71 -31.0947 -172.084 -26.0732c-51.3737 5.02148 -81.3096 19.5068 -89.8076 43.4561c-7.72526 20.8581 -5.40755 42.2959 6.95312 64.3135s15.8372 43.4554 10.4297 64.3135
c-21.6315 74.1641 -30.709 132.104 -27.2324 173.821c3.47656 41.7174 25.3008 78.7995 65.4727 111.246c10.043 8.49805 15.6439 18.348 16.8027 29.5498s6.75977 18.734 16.8027 22.5967c9.27083 3.08984 18.1549 0.772135 26.6523 -6.95312
c8.49805 -7.72526 19.3138 -11.2015 32.4473 -10.4287c50.9876 0.772135 89.2282 -11.9749 114.722 -38.2412c25.4941 -26.2663 56.3958 -78.0264 92.7051 -155.28zM282.694 1.69336c33.9915 12.3607 64.6999 28.777 92.125 49.249
c27.4251 20.472 46.7386 38.0472 57.9404 52.7256s16.0303 24.3353 14.4854 28.9707c-3.08984 8.49805 -12.5534 14.8714 -28.3906 19.1201s-39.7858 4.44173 -71.8457 0.579102c-32.0605 -3.86263 -68.1768 -13.1331 -108.349 -27.8115
c-39.3997 -14.6777 -72.8122 -31.4805 -100.237 -50.4082c-27.4251 -18.9271 -45.5798 -35.1504 -54.4639 -48.6699s-12.1676 -23.7555 -9.85059 -30.708c1.54557 -4.63542 11.2025 -8.88444 28.9707 -12.7471c17.7682 -3.86263 43.6484 -4.63509 77.6406 -2.31738
c33.9915 2.31706 67.9831 9.65592 101.975 22.0166v0.000976562zM246.771 102.51c3.08984 0.772135 7.14551 2.12402 12.167 4.05566c5.02148 1.93099 8.30501 3.28288 9.85059 4.05566l1.1582 -1.15918c5.4082 -15.4505 2.125 -31.4805 -9.84961 -48.0898
c-11.974 -16.61 -29.1628 -28.7777 -51.5664 -36.5029c-37.082 -13.9056 -66.4388 -11.2018 -88.0703 8.11133c30.1296 26.2663 72.2331 49.4427 126.311 69.5293v0z" />
    <glyph glyph-name="big-blue-button" unicode="&#xf149;" 
d="M255.865 448h-0.000976562h0.0664062h0.0693359c141.29 0 256 -114.71 256 -256s-114.71 -256 -256 -256s-256 114.71 -256 256c0 141.244 114.638 255.925 255.865 256zM146.602 351.251v-223.462c0 -20.6797 7.26855 -38.2979 21.8271 -52.8477
c14.5498 -14.5566 32.1709 -21.8301 52.8506 -21.8301h89.0381c20.6797 0 38.292 7.27148 52.8496 21.8301c14.5508 14.5498 21.8281 32.168 21.8281 52.8477h0.00195312v68.3604c0 20.6797 -7.2793 38.291 -21.8301 52.8496
c-14.5576 14.5488 -32.167 21.8281 -52.8477 21.8281h-96.5068c0 -15.8691 7.65527 -29.2168 22.9766 -40.041c15.3125 -10.833 34.0811 -16.6328 56.2959 -17.4043h17.2324c11.4893 -0.385742 17.2324 -6.12988 17.2324 -17.2324v-68.3604
c0 -11.4893 -5.74414 -17.2324 -17.2324 -17.2324h-89.0381c-11.4893 0 -17.2334 5.74316 -17.2334 17.2324v144.188c0 21.8281 -5.61133 40.499 -16.8301 56.0088s-24.7549 23.2656 -40.6143 23.2656z" />
    <glyph glyph-name="blackboard" unicode="&#xf103;" 
d="M65.0244 -64l48.6396 120.32l75.7764 -25.6006l-35.8408 -94.7197h-88.5752zM322.56 30.7197l75.7764 25.6006l48.6396 -120.32h-88.5752zM460.8 396.8c14.3359 0 25.6006 -11.2637 25.6006 -25.5996v-281.601c0 -14.3359 -11.2646 -25.5996 -25.6006 -25.5996h-409.6
c-14.3359 0 -25.6006 11.2637 -25.6006 25.5996v281.601c0 14.3359 11.2646 25.5996 25.6006 25.5996h166.399l12.8008 51.2002h51.1992l12.8008 -51.2002h166.399z" />
    <glyph glyph-name="browser" unicode="&#xf104;" 
d="M460.8 396.8c28.1602 0 51.2002 -23.04 51.2002 -51.2002v-307.199c0 -28.1602 -23.04 -51.2002 -51.2002 -51.2002h-409.6c-28.1602 0 -51.2002 23.04 -51.2002 51.2002v307.199c0 28.1602 23.04 51.2002 51.2002 51.2002h409.6zM115.2 352
c-10.5986 0 -19.2002 -8.60156 -19.2002 -19.2002s8.60156 -19.2002 19.2002 -19.2002s19.2002 8.60156 19.2002 19.2002s-8.60156 19.2002 -19.2002 19.2002zM44.7998 332.8c0 -10.5986 8.60156 -19.2002 19.2002 -19.2002s19.2002 8.60156 19.2002 19.2002
s-8.60156 19.2002 -19.2002 19.2002s-19.2002 -8.60156 -19.2002 -19.2002zM460.8 38.4004v230.399h-409.6v-230.399h409.6zM460.8 320l0.486328 25.5996h-307.687v-25.5996h307.2z" />
    <glyph glyph-name="calendar" unicode="&#xf105;" 
d="M435.2 371.2c28.1602 0 51.2002 -23.04 51.2002 -51.2002v-307.2c0 -28.1602 -23.04 -51.2002 -51.2002 -51.2002h-358.4c-28.1855 0 -51.2002 23.04 -51.2002 51.2002v307.2c0 28.1602 23.0146 51.2002 51.2002 51.2002h25.6006v-51.2002h76.7998v51.2002h153.6
v-51.2002h76.7998v51.2002h25.6006zM435.2 12.7998v204.8h-358.4v-204.8h358.4zM166.4 422.4v-89.6006h-51.2002v89.6006h51.2002zM396.8 422.4v-89.6006h-51.2002v89.6006h51.2002z" />
    <glyph glyph-name="camera" unicode="&#xf106;" 
d="M256 243.2c42.3936 0 76.7998 -34.4062 76.7998 -76.7998s-34.4062 -76.8008 -76.7998 -76.8008c-42.4189 0 -76.7998 34.4072 -76.7998 76.8008s34.3809 76.7998 76.7998 76.7998zM460.8 320c28.1602 0 51.2002 -23.04 51.2002 -51.2002v-230.399
c0 -28.1602 -23.04 -51.2002 -51.2002 -51.2002h-409.6c-28.1602 0 -51.2002 23.04 -51.2002 51.2002v230.399c0 28.1602 23.04 51.2002 51.2002 51.2002h61.4395c8.44824 0 17.5361 6.55371 20.1992 14.5918l15.9229 47.667c2.63672 7.9873 11.75 14.541 20.1982 14.541
h174.08c8.47363 0 17.5361 -6.55371 20.2236 -14.5664l15.8975 -47.6416c2.6377 -8.03809 11.751 -14.5918 20.1992 -14.5918h61.4395zM256 38.4004c70.6816 0 128 57.292 128 128c0 70.707 -57.3184 128 -128 128c-70.707 0 -128 -57.293 -128 -128
c0 -70.708 57.293 -128 128 -128zM448 238.08c9.90723 0 17.9199 8.03809 17.9199 17.9453c0 9.88184 -8.0127 17.9199 -17.9199 17.9199s-17.9199 -8.06348 -17.9199 -17.9199c0 -9.90723 8.0127 -17.9453 17.9199 -17.9453z" />
    <glyph glyph-name="chat" unicode="&#xf107;" 
d="M148.48 135.68v-0.0253906h179.199c1.74121 0 3.48145 0.179688 5.12012 0.538086v-46.5928c0 -28.1592 -23.04 -51.1992 -51.2002 -51.1992h-128l-76.7998 -76.8008v76.8008h-25.5996c-28.1602 0 -51.2002 23.04 -51.2002 51.1992v153.601
c0 28.1602 23.04 51.2002 51.2002 51.2002h97.2803v-158.721zM460.8 422.4c28.1602 0 51.2002 -23.04 51.2002 -51.2002v-153.601c0 -28.1855 -23.04 -51.1992 -51.2002 -51.1992h-25.5996v-76.8008l-76.7998 76.8008h-179.2v204.8c0 28.1602 23.04 51.2002 51.2002 51.2002
h230.399z" />
    <glyph glyph-name="check" unicode="&#xf108;" 
d="M212.326 12.8516c-11.1357 0 -21.6826 5.19629 -28.4414 14.1562l-91.4688 120.857c-11.9043 15.6934 -8.80664 38.042 6.91211 49.9463c15.7441 11.9551 38.0928 8.80566 49.9971 -6.91211l60.1855 -79.4629l151.321 242.995
c10.4189 16.6914 32.4355 21.8115 49.1777 11.3926c16.7168 -10.3936 21.8623 -32.4102 11.417 -49.1523l-178.79 -286.976c-6.19531 -10.0098 -16.9219 -16.2559 -28.6719 -16.7939c-0.563477 -0.0507812 -1.0752 -0.0507812 -1.63867 -0.0507812z" />
    <glyph glyph-name="chevron-down" unicode="&#xf109;" 
d="M115.609 254.771c11.1621 11.417 26.7012 12.3135 40.3457 0l100.045 -95.9238l100.045 95.9238c13.6445 12.3135 29.21 11.417 40.2939 0c11.1621 -11.3926 10.4453 -30.6436 0 -41.3447c-10.3936 -10.7002 -120.191 -115.251 -120.191 -115.251
c-5.55566 -5.70898 -12.8516 -8.57617 -20.1475 -8.57617s-14.5918 2.86719 -20.1982 8.57617c0 0 -109.747 104.551 -120.192 115.251c-10.4697 10.7012 -11.1611 29.9521 0 41.3447z" />
    <glyph glyph-name="chevron-left" unicode="&#xf10a;" 
d="M318.771 332.391c11.417 -11.1621 12.3135 -26.7012 0 -40.3457l-95.9238 -100.045l95.9238 -100.045c12.3135 -13.6445 11.417 -29.21 0 -40.2939c-11.3926 -11.1621 -30.6436 -10.4453 -41.3447 0c-10.7002 10.3936 -115.251 120.191 -115.251 120.191
c-5.70898 5.55566 -8.57617 12.8516 -8.57617 20.1475s2.86719 14.5918 8.57617 20.1982c0 0 104.551 109.747 115.251 120.192c10.7012 10.4697 29.9521 11.1611 41.3447 0z" />
    <glyph glyph-name="chevron-right" unicode="&#xf10b;" 
d="M234.573 332.391c10.7002 -10.4453 115.251 -120.192 115.251 -120.192c5.70898 -5.60645 8.57617 -12.9023 8.57617 -20.1982s-2.86719 -14.5918 -8.57617 -20.1475c0 0 -104.551 -109.798 -115.251 -120.191c-10.7012 -10.4453 -29.9521 -11.1621 -41.3447 0
c-11.417 11.1104 -12.3135 26.6494 0 40.2939l95.9238 100.045l-95.9238 100.045c-12.3135 13.6445 -11.417 29.21 0 40.3457c11.3926 11.1611 30.6436 10.4697 41.3447 0z" />
    <glyph glyph-name="chevron-up" unicode="&#xf10c;" 
d="M396.391 129.229c-11.1621 -11.417 -26.7012 -12.3135 -40.3457 0l-100.045 95.9238l-100.045 -95.9238c-13.6445 -12.3135 -29.21 -11.417 -40.2939 0c-11.1621 11.3926 -10.4453 30.6436 0 41.3447c10.3936 10.7002 120.191 115.251 120.191 115.251
c5.55566 5.70898 12.8516 8.57617 20.1475 8.57617s14.5918 -2.86719 20.1982 -8.57617c0 0 109.747 -104.551 120.192 -115.251c10.4697 -10.7012 11.1611 -29.9521 0 -41.3447z" />
    <glyph glyph-name="circle-with-cross" unicode="&#xf10d;" 
d="M256 407.04c118.759 0 215.04 -96.2812 215.04 -215.04s-96.2812 -215.04 -215.04 -215.04s-215.04 96.2812 -215.04 215.04s96.2812 215.04 215.04 215.04zM378.599 113.639l-78.3623 78.3613l78.3877 78.3613l-44.2627 44.2627l-78.3613 -78.3613l-78.3359 78.3359
l-44.2627 -44.2373l78.3623 -78.3613l-78.3877 -78.3359l44.2627 -44.2627l78.3613 78.3359l78.3359 -78.3613z" />
    <glyph glyph-name="circle-with-minus" unicode="&#xf10e;" 
d="M256 407.04c118.759 0 215.04 -96.2812 215.04 -215.04s-96.2812 -215.04 -215.04 -215.04s-215.04 96.2812 -215.04 215.04s96.2812 215.04 215.04 215.04zM384 166.4v51.1992h-256v-51.1992h256z" />
    <glyph glyph-name="circle-with-plus" unicode="&#xf10f;" 
d="M256 407.04c118.759 0 215.04 -96.2812 215.04 -215.04s-96.2812 -215.04 -215.04 -215.04s-215.04 96.2812 -215.04 215.04s96.2812 215.04 215.04 215.04zM384 166.4v51.1992h-102.4v102.4h-51.1992v-102.4h-102.4v-51.1992h102.4v-102.4h51.1992v102.4h102.4z" />
    <glyph glyph-name="cloud" unicode="&#xf110;" 
d="M512 158.208c0 -66.1504 -54.8867 -119.808 -122.547 -119.808h-296.858c-51.1484 0 -92.5947 40.5498 -92.5947 90.5469c0 49.9453 41.4463 90.4961 92.5947 90.4961c3.73828 0 7.37305 -0.307617 10.9824 -0.691406
c-0.946289 6.29785 -1.45898 12.749 -1.45898 19.3535c0 73.498 60.9541 133.095 136.192 133.095c61.6191 0 113.639 -39.9873 130.457 -94.8994c6.7334 1.10059 13.6191 1.68945 20.7109 1.68945c67.6348 0 122.521 -53.5811 122.521 -119.782z" />
    <glyph glyph-name="code" unicode="&#xf111;" 
d="M146.406 70.4004c-6.04102 0 -12.1338 2.12402 -16.998 6.45117l-129.536 115.148l136.729 121.549c10.5469 9.34375 26.7266 8.44824 36.1221 -2.125c9.39453 -10.5723 8.44727 -26.752 -2.125 -36.1475l-93.6709 -83.2764l86.4775 -76.8516
c10.5723 -9.39453 11.5195 -25.5742 2.12402 -36.1465c-5.04297 -5.70898 -12.083 -8.60156 -19.123 -8.60156zM375.398 70.4512c-4.86426 -4.32617 -10.957 -6.45117 -16.998 -6.45117c-7.04004 0 -14.0801 2.89258 -19.124 8.60156
c-9.39453 10.5732 -8.44727 26.752 2.125 36.1475l93.6709 83.251l-86.4775 76.877c-10.5723 9.39551 -11.5195 25.5742 -2.12402 36.1475c9.36914 10.5723 25.5488 11.5195 36.1211 2.12402l129.536 -115.148zM255.642 34.1758
c-2.07324 -12.4922 -12.9277 -21.376 -25.2158 -21.376c-1.4082 0 -2.79102 0.102539 -4.22461 0.333008c-13.9512 2.3291 -23.3721 15.5137 -21.043 29.4658l51.2002 307.2c2.27832 13.9512 15.4365 23.3984 29.4404 21.043
c13.9512 -2.33008 23.3721 -15.5137 21.043 -29.4658z" />
    <glyph glyph-name="cog" unicode="&#xf112;" 
d="M429.645 192c0 -26.8027 16.5381 -47.9492 41.4463 -62.5156c-4.47949 -15.001 -10.4189 -29.3115 -17.7148 -42.8027c-27.8779 7.24512 -50.4316 -3.66113 -69.4014 -22.6045c-18.9951 -18.9951 -24.7812 -41.5488 -17.4854 -69.4023
c-13.5166 -7.2959 -27.8525 -13.2344 -42.8027 -17.7402c-14.5664 24.8828 -40.8574 41.3955 -67.6611 41.3955c-26.8281 0 -53.1201 -16.4873 -67.6602 -41.3955c-14.9766 4.47949 -29.3125 10.4443 -42.8037 17.7402c7.2959 27.8535 1.45898 50.4072 -17.5107 69.4023
c-18.9434 18.9697 -41.4971 24.7549 -69.4014 17.459c-7.2959 13.5166 -13.209 27.8525 -17.6895 42.8027c24.832 14.5664 41.3438 40.8584 41.3438 67.6611c0 26.8545 -16.5117 48 -41.3438 62.541c4.4541 14.9502 10.3936 29.3115 17.6895 42.8027
c27.9043 -7.2959 50.458 3.60938 69.4014 22.6055c19.0215 18.9434 24.8066 41.4971 17.5107 69.4014c13.4912 7.2959 27.8018 13.2607 42.7773 17.6895c14.5664 -24.832 40.832 -41.3438 67.6611 -41.3438c26.8027 0 53.0947 16.5117 67.6348 41.3438
c14.9512 -4.42871 29.3125 -10.3936 42.8037 -17.6895c-7.2959 -27.9043 -1.48535 -50.458 17.4844 -69.4014c18.9697 -18.9961 41.5234 -29.9014 69.4023 -22.6055c7.2959 -13.4912 13.209 -27.8525 17.7148 -42.8027c-24.8574 -14.541 -41.3955 -35.6865 -41.3955 -62.541
zM256 98.5088c51.6611 0 93.4912 41.8301 93.4912 93.4912c0 51.6348 -41.8301 93.542 -93.4912 93.542c-51.6348 0 -93.5166 -41.8809 -93.5166 -93.542c0 -51.6348 41.8555 -93.4912 93.5166 -93.4912z" />
    <glyph glyph-name="discord" unicode="&#xf113;" 
d="M433.43 354.778v0c0.283203 -0.12207 0.525391 -0.325195 0.666016 -0.609375c57.8193 -85.0449 86.376 -180.979 75.7002 -291.421c-0.0410156 -0.467773 -0.282227 -0.894531 -0.666016 -1.17871c-43.7939 -32.1602 -86.2148 -51.6846 -128.05 -64.626
c-0.666992 -0.204102 -1.39258 0.0400391 -1.79688 0.609375c-9.66699 13.4492 -18.4453 27.6299 -26.1338 42.5225c-0.444336 0.873047 -0.0410156 1.92969 0.867188 2.27441c13.9453 5.2627 27.2041 11.5605 39.959 19.0166
c1.00879 0.588867 1.06934 2.03223 0.140625 2.72266c-2.7041 2.01172 -5.3877 4.12402 -7.95117 6.2373c-0.484375 0.383789 -1.13086 0.46582 -1.67578 0.202148c-82.8037 -38.2568 -173.519 -38.2568 -257.311 0c-0.544922 0.244141 -1.19141 0.163086 -1.6543 -0.222656
c-2.56348 -2.11328 -5.24805 -4.20605 -7.93164 -6.2168c-0.928711 -0.69043 -0.847656 -2.13379 0.161133 -2.72266c12.7549 -7.31445 26.0137 -13.7549 39.9385 -19.0371c0.908203 -0.344727 1.33203 -1.38184 0.887695 -2.25488
c-7.52637 -14.9131 -16.3057 -29.0938 -26.1543 -42.543c-0.423828 -0.547852 -1.12988 -0.791016 -1.7959 -0.588867c-41.6338 12.9414 -84.0547 32.4658 -127.849 64.627c-0.363281 0.28418 -0.625 0.731445 -0.666016 1.19824
c-8.91992 95.5283 9.26367 192.256 75.6396 291.421c0.161133 0.264648 0.40332 0.466797 0.686523 0.589844c32.6533 14.9932 67.6475 26.0254 104.216 32.3232c0.666016 0.101562 1.33105 -0.203125 1.6748 -0.791992c4.52051 -8.00488 9.68652 -18.2646 13.1787 -26.6553
c38.5459 5.8916 77.6973 5.8916 117.051 0c3.49121 8.20801 8.47656 18.6504 12.9766 26.6553c0.34375 0.609375 1.00879 0.914062 1.67578 0.791992c36.5879 -6.31836 71.582 -17.3506 104.216 -32.3232zM171.094 120.935c25.6289 0 46.0127 23.1602 46.0127 51.6035
c0.404297 28.2402 -20.1816 51.6045 -46.0127 51.6045c-25.6309 0 -46.0137 -23.1611 -46.0137 -51.6045s20.7861 -51.6035 46.0137 -51.6035zM341.221 120.935c25.832 0 46.0137 23.1602 46.0137 51.6035c0.40332 28.2402 -20.1816 51.6045 -46.0137 51.6045
c-25.6299 0 -46.0127 -23.1611 -46.0127 -51.6045s20.7861 -51.6035 46.0127 -51.6035z" />
    <glyph glyph-name="dropbox" unicode="&#xf114;" 
d="M156.391 424.909l99.6094 -80.4102l-145.639 -94.541l-100.121 83.9424zM344.371 38.6045c2.17578 0 4.35254 0.588867 6.24609 1.84375l60.0576 39.2441v-23.1416l-154.675 -97.46l-154.675 97.4336v23.1426l60.0576 -39.2441
c1.89355 -1.25488 4.07031 -1.84375 6.24609 -1.84375c2.58594 0 5.19629 0.870117 7.2959 2.61133l81.0752 67.3027l81.0752 -67.2773c2.09961 -1.7666 4.68457 -2.61133 7.2959 -2.61133zM501.76 333.9l-100.146 -83.9424l-145.613 94.541l99.584 80.4102zM256 158.95
l145.613 91.0078l89.1133 -71.5518l-144.41 -94.4131zM165.684 83.9932l-144.41 94.4131l89.0879 71.5518l145.639 -91.0078z" />
    <glyph glyph-name="edit" unicode="&#xf115;" 
d="M449.562 385.562c36.9668 -36.9668 31.4111 -64.6914 31.4365 -64.6914l-154.931 -154.931l-173.415 -173.338l-121.933 -25.8564l25.8564 121.907l173.414 173.39l154.932 154.931s27.7246 5.5293 64.6396 -31.4111zM145.408 7.24512l12.0576 11.9805
s-0.486328 22.6562 -26.0098 48.1533c-25.5488 25.5488 -48.1533 26.0098 -48.1533 26.0098l-12.0322 -12.0059l-8.95996 -41.5488c7.50098 -4.04492 15.001 -8.83203 23.8594 -17.6904c8.83203 -8.85742 13.6699 -16.3584 17.6641 -23.8584z" />
    <glyph glyph-name="export" unicode="&#xf116;" 
d="M384 64v28.1855l51.2002 42.1123v-95.8975c0 -14.1572 -11.4434 -25.6006 -25.6006 -25.6006h-384c-14.1562 0 -25.5996 11.4434 -25.5996 25.6006v281.6c0 14.1055 11.4434 25.5996 25.5996 25.5996h147.584c-37.9131 -28.2617 -55.5518 -51.1992 -55.5518 -51.1992
h-66.4316v-230.4h332.8zM342.042 241.92c-112 0 -147.942 -17.9707 -206.362 -113.92c0 0 0 203.98 206.362 203.98v80.1543l169.958 -127.975l-169.958 -133.146v90.9053z" />
    <glyph glyph-name="eye" unicode="&#xf117;" 
d="M256 335.36c167.936 0 256 -123.699 256 -143.36c0 -19.6094 -88.0645 -143.36 -256 -143.36c-167.962 0 -256 123.751 -256 143.36c0 19.6611 88.0381 143.36 256 143.36zM256 81.7412c62.8477 0 113.767 49.3564 113.767 110.259s-50.9189 110.311 -113.767 110.311
s-113.792 -49.4082 -113.792 -110.311s50.9443 -110.259 113.792 -110.259zM256 192c8.85742 -9.70215 56.9092 14.0029 56.9092 0c0 -30.4385 -25.498 -55.1426 -56.9092 -55.1426c-31.4365 0 -56.9092 24.7041 -56.9092 55.1426s25.4727 55.1426 56.9092 55.1426
c16.9727 0 -10.4189 -43.6992 0 -55.1426z" />
    <glyph glyph-name="facebook" unicode="&#xf118;" 
d="M435.2 422.4c28.1602 0 51.2002 -23.04 51.2002 -51.2002v-358.4c0 -28.1855 -23.04 -51.2002 -51.2002 -51.2002h-102.4v179.2h51.2002l14.541 63.335h-65.7412v43.2637c0 17.7148 9.67676 36.8125 35.123 36.8125h30.6436v66.6885l-46.1572 0.0507812
c-65.3818 0 -96.4092 -38.9121 -96.4092 -94.3105v-52.4795h-51.2002v-63.3604h51.2002v-179.2h-179.2c-28.1602 0 -51.2002 23.0146 -51.2002 51.2002v358.4c0 28.1602 23.04 51.2002 51.2002 51.2002h358.4z" />
    <glyph glyph-name="feather" unicode="&#xf119;" 
d="M108.902 -52.915c-3.45605 -10.9824 -22.6045 -6.80957 -21.9902 12.6211c1.30566 24.3193 9.85547 72.1406 25.4971 113.689c-41.4971 63.3086 -41.1641 110.976 -26.9561 158.566c10.3936 -31.0527 45.2354 -99.5078 55.6025 -94.5664
c10.3428 4.91504 -21.9385 143.386 7.57812 203.725c15.8467 32.4355 66.3809 70.374 93.9521 82.5859c-26.1631 -49.0244 -23.1172 -101.786 -8.16699 -102.733c15.002 -0.921875 65.5107 118.912 97.7158 121.702c32.2041 2.81641 90.624 -27.0078 100.198 -47.001
c7.9873 -16.5381 -1.20312 -62.8994 -20.8135 -81.9717c-38.041 -37.043 -109.389 -29.0557 -133.427 -42.7266c-10.4189 -5.91309 15.4111 -45.1328 96.1797 -27.3145c-64.0771 -90.9824 -161.921 -67.7119 -164.25 -81.2295
c-2.30371 -13.542 40.7549 -44.748 76.4668 -33.8174c-44.0059 -78.5918 -72.6777 -58.8799 -141.978 -69.8623c-15.8975 -51.1484 -27.75 -86.5283 -35.6094 -111.667z" />
    <glyph glyph-name="github" unicode="&#xf11a;" 
d="M337.408 158.489c18.3809 0 33.2539 -20.6592 33.2803 -46.0537c0 -25.4463 -14.8994 -46.1055 -33.2803 -46.1055s-33.2803 20.6592 -33.2803 46.1055c0 25.3945 14.8994 46.0537 33.2803 46.0537zM453.273 278.374c23.7568 -25.8047 38.2461 -56.8057 38.2461 -99.0977
c0 -183.961 -152.602 -186.905 -191.154 -186.905c-8.7041 0 -26.0352 -0.0507812 -44.3398 -0.0507812c-18.3291 0 -35.6348 0.0507812 -44.3906 0.0507812c-38.502 0 -191.154 2.94434 -191.154 186.905c0 42.292 14.5146 73.293 38.2715 99.0977
c-3.7627 9.34473 -3.96777 62.4385 16.2305 113.306c0 0 46.3613 -5.09375 116.531 -53.248c14.7197 4.09668 39.6035 6.09277 64.5117 6.09277c24.8574 0 49.7666 -1.99609 64.4863 -6.09277c70.1445 48.1543 116.506 53.248 116.506 53.248
c20.2236 -50.8672 20.0703 -103.961 16.2559 -113.306zM256.717 14.9756c96.5635 0 171.75 11.4951 171.75 105.345c0 22.502 -7.93555 43.3408 -26.752 60.6465c-31.4365 28.8506 -84.6592 13.5928 -144.998 13.5928h-0.691406h-0.742188
c-60.3389 0 -113.536 15.2578 -144.947 -13.5928c-18.8672 -17.3057 -26.8027 -38.1445 -26.8027 -60.6465c0 -93.8496 75.2119 -105.345 171.75 -105.345h1.43359zM174.617 158.489c18.4072 0 33.3057 -20.6592 33.3057 -46.0537
c0 -25.4463 -14.8984 -46.1055 -33.3057 -46.1055c-18.3809 0 -33.2793 20.6592 -33.2793 46.1055c0 25.3945 14.8984 46.0537 33.2793 46.0537z" />
    <glyph glyph-name="globe" unicode="&#xf11b;" 
d="M256 437.76c135.501 0 245.76 -110.259 245.76 -245.76s-110.259 -245.76 -245.76 -245.76c-135.552 0 -245.785 110.259 -245.785 245.76s110.233 245.76 245.785 245.76zM465.613 192c0 92.2881 -60.0068 170.803 -143.054 198.707
c-5.14551 -6.24609 -8.95996 -12.2627 -8.60156 -16.2812c5.60645 -56.0898 43.8535 -14.0029 51.252 -22.2461c26.4443 -29.2871 -49.6387 -39.4502 -23.1943 -92.3906c12.749 -25.4463 27.4688 -32.5381 48.9219 -32.8447
c21.4785 -0.358398 29.3887 -36.9922 31.0781 -52.1992c1.79199 -15.2314 -0.230469 -54.3486 -7.9873 -71.2441c-7.67969 -16.7939 0.487305 -32.999 8.16699 -38.9893c27.1357 35.3281 43.418 79.5391 43.418 127.488zM227.2 399.539
c-76.4414 -10.5986 -139.853 -62.4893 -166.81 -132.403c15.4365 -1.6123 52.4541 -2.04785 57.0879 -15.1035c4.73633 -13.1328 -16.333 -26.752 -16.333 -54.0928c0 -30.3359 38.8613 -29.9775 38.8613 -52.7871c0 -22.8359 8.39648 -49.4854 8.39648 -57.0879
c0 -7.60352 32.4355 -49.5625 44.4932 -49.5625c12.0059 0 2.55957 46.8994 3.19922 59.3408c0.333008 8.03906 5.73438 32.6406 7.2959 38.4004c10.3936 39.2451 49.4336 35.251 58.3428 58.957c28.1084 74.5469 -60.083 78.7969 -72.0898 83.0459
c-11.9805 4.19824 -32.3838 4.35254 -40.1152 1.79199c-7.73047 -2.50879 -23.1934 10.4453 -23.1934 21.4531s30.6172 32.8955 40.1152 48.1025c9.4209 15.2061 16.9473 13.0049 34.458 28.8506c8.03809 7.34766 21.2734 11.3154 26.291 21.0947zM190.055 -6.91211
c20.7354 -6.88672 42.9053 -10.7012 65.9199 -10.7012c42.6494 0 82.4062 12.8516 115.559 34.8936c-9.2168 16.7422 -43.4434 19.0459 -60.8008 17.6377c-20.5566 -1.68945 -43.9297 -14.9502 -56.9854 -17.792c-14.7197 -3.25098 -25.3438 -7.75684 -38.3994 -8.34473
c-11.418 -0.435547 -12.6982 -9.03711 -25.293 -15.6934z" />
    <glyph glyph-name="google-play" unicode="&#xf11c;" 
d="M99.3662 -50.3799l186.351 190.685l50.7666 -56.3389zM12.6914 443.047l240.213 -265.596l-236.498 -241.451c-4.95312 5.57227 -8.04883 13.001 -8.04883 21.6689v468.662c0 6.19141 1.85938 11.7637 4.33398 16.7158zM487.545 215.217
c9.90625 -4.95312 14.8594 -13.6211 16.0977 -22.9072c-1.23926 -9.28613 -6.19141 -18.5732 -16.0977 -23.5264l-106.485 -60.0527l-60.6729 66.8633l84.1982 86.0557zM360.01 287.032l-72.4355 -74.292l-212.972 235.26z" />
    <glyph glyph-name="gplus" unicode="&#xf11d;" 
d="M27.4287 318.857c0 22.0951 4.76172 41.5234 14.2852 58.2852c9.52409 16.7624 20.1908 29.1436 32 37.1436c11.8099 8 24.9528 14.4759 39.4287 19.4277c14.4766 4.95247 25.1432 7.8099 32 8.57227c6.85742 0.761719 11.8099 1.14258 14.8574 1.14258h131.429v-2.28613
c0 -8.38086 -14.8571 -15.238 -44.5713 -20.5713c-10.6667 0 -17.9049 -1.1429 -21.7148 -3.42871c15.2383 -7.61914 25.5241 -18.2858 30.8574 -32c5.33333 -13.7142 8 -32 8 -54.8574c0 -38.8568 -12.9525 -68.9518 -38.8574 -90.2852
c-14.4759 -14.4766 -21.7139 -24.7624 -21.7139 -30.8574c0 -6.85677 9.52376 -19.0472 28.5713 -36.5713c39.6191 -34.2858 59.4287 -68.1904 59.4287 -101.714c0 -53.3333 -22.0954 -90.2858 -66.2861 -110.857c-25.9043 -12.9525 -54.4756 -19.4287 -85.7139 -19.4287
h-2.28613l-2.28516 1.14258c-0.76237 -0.761719 -1.52441 -1.14258 -2.28613 -1.14258c-9.14258 0 -19.4284 0.952474 -30.8574 2.85742c-11.4284 1.90495 -25.7139 5.90495 -42.8564 12c-17.1432 6.09505 -31.2386 16.9521 -42.2861 32.5713
c-11.0475 15.6191 -16.5713 35.2383 -16.5713 58.8574c0 22.8568 6.09538 42.0947 18.2861 57.7139c12.1901 15.6191 27.9993 26.4762 47.4277 32.5713c19.429 6.0957 36.1911 10.2861 50.2861 12.5713c14.0951 2.28581 27.6188 3.42871 40.5713 3.42871h1.14258
c-6.09505 8.38086 -10.6663 17.3333 -13.7139 26.8574s-4.57129 16.9528 -4.57129 22.2861l1.14258 8h-8c-24.3809 0 -45.3333 5.71419 -62.8574 17.1426c-28.1901 16.7617 -42.2852 47.238 -42.2852 91.4287zM238.857 60.5713
c-1.52409 19.8099 -9.71452 35.8099 -24.5713 48c-14.8574 12.1908 -34.4766 18.2861 -58.8574 18.2861h-9.14258c-24.3815 -0.761719 -46.096 -9.52376 -65.1436 -26.2861c-17.5234 -16 -25.5234 -33.9046 -24 -53.7139
c1.52409 -19.8099 11.6195 -35.0482 30.2861 -45.7148s41.3333 -15.238 68 -13.7139c25.9049 1.52409 46.6667 9.14323 62.2852 22.8574c15.6191 13.7142 22.667 30.4759 21.1436 50.2852zM204.571 346.286c-11.4284 41.1426 -34.6663 61.7139 -69.7139 61.7139
c-4.57161 0 -8.38118 -0.380859 -11.4287 -1.14258c-15.2383 -4.57161 -26.2858 -16.3812 -33.1426 -35.4287c-6.0957 -19.0475 -6.47689 -39.238 -1.14355 -60.5713c5.33333 -19.8099 14.2858 -36.0003 26.8574 -48.5713
c12.5716 -12.5716 26.0954 -18.8574 40.5713 -18.8574c4.57161 0 8.00033 0.380859 10.2861 1.14258c16 4.57161 28 16.9525 36 37.1426c8 20.1908 8.57129 41.7148 1.71387 64.5723zM426.286 246.857h85.7139v-53.7148h-85.7139v-85.7139h-53.7148v85.7139h-85.7139
v53.7148h85.7139v85.7139h53.7148v-85.7139z" />
    <glyph glyph-name="graduation-cap" unicode="&#xf11e;" 
d="M84.4805 134.592l171.52 -86.0156l141.312 68.6074c-11.7754 -48.1279 1.53613 -54.7832 -48.6396 -76.7998c-50.6875 -22.0156 -72.7041 -43.0078 -92.6719 -43.0078s-43.5195 24.0645 -94.208 46.0801c-50.1758 22.0156 -65.5361 43.0078 -77.3115 91.1357z
M499.712 260.032c16.3838 -9.21582 16.3838 -24.5762 0 -33.792l-39.9355 -22.0166l-158.208 51.7119c-6.65625 10.7529 -24.5762 18.9443 -45.5684 18.9443c-27.1357 0 -48.6396 -13.3115 -48.6396 -29.1836s21.5039 -29.1846 48.6396 -29.1846
c6.65625 0 12.7998 1.02441 18.9443 2.56055l148.991 -35.3281l-137.728 -76.7998c-16.3838 -9.2168 -44.0322 -9.2168 -60.416 0l-213.504 119.296c-16.3838 9.21582 -16.3838 24.5762 0 33.792l213.504 119.296c16.3838 9.72754 44.0322 9.72754 60.416 0z
M434.176 34.2402c20.4805 120.832 -10.2402 149.504 -10.2402 149.504l35.8408 19.9678s25.5996 -36.8643 10.752 -166.912c-3.07227 -28.6719 -37.8887 -12.7998 -36.3525 -2.55957z" />
    <glyph glyph-name="heart" unicode="&#xf11f;" 
d="M440.064 341.632c48.1279 -44.1855 48.1279 -115.712 0 -159.897l-184.064 -168.935l-184.064 168.935c-48.1533 44.1855 -48.1533 115.687 0 159.897c42.8037 39.2705 112.18 39.2705 154.982 0l29.082 -26.6748l29.0557 26.6748
c42.8037 39.2705 112.205 39.2705 155.009 0z" />
    <glyph glyph-name="heart-outlined" unicode="&#xf120;" 
d="M440.064 341.606c48.1279 -44.1602 48.1279 -115.687 0 -159.872l-184.064 -168.935l-184.064 168.935c-48.1533 44.1855 -48.1533 115.687 0 159.872c42.8037 39.2959 112.18 39.2959 154.982 0l29.082 -26.6494l29.0557 26.6494
c42.8037 39.2959 112.205 39.2959 155.009 0zM412.774 208c15.8203 14.5156 21.9141 33.4844 21.9141 53.6318s-3.50781 36.6846 -19.3281 51.1748c-13.9521 12.8252 -32.7168 19.8906 -52.8135 19.8906c-20.0957 0 -38.835 -12.1855 -52.8125 -25.0361l-53.7344 -46.7461
l-53.7598 46.7197c-13.9521 12.8516 -32.7168 25.0371 -52.7871 25.0371c-20.0967 0 -38.8613 -7.06543 -52.8135 -19.8906c-15.8203 -14.4902 -19.3535 -31.0273 -19.3535 -51.1748s6.11914 -39.0908 21.9141 -53.6064l156.8 -146.304z" />
    <glyph glyph-name="home" unicode="&#xf121;" 
d="M478.003 166.4h-42.8027v-153.601c0 -11.3916 -4.9668 -25.5996 -25.6006 -25.5996h-102.399v153.6h-102.4v-153.6h-102.399c-20.6338 0 -25.6006 14.208 -25.6006 25.5996v153.601h-42.8027c-15.3086 0 -12.0322 8.29395 -1.53613 19.1484l205.414 205.619
c4.99219 5.1709 11.5459 7.73145 18.125 7.9873c6.5791 -0.255859 13.1328 -2.79004 18.125 -7.9873l205.389 -205.594c10.5215 -10.8799 13.7979 -19.1738 -1.51074 -19.1738z" />
    <glyph glyph-name="info" unicode="&#xf122;" 
d="M318.464 448c16.3841 0 29.0133 -4.60807 37.8877 -13.8242c8.875 -9.21615 13.3125 -20.9922 13.3125 -35.3281c0 -17.0664 -6.65592 -32.085 -19.9678 -45.0557c-13.3125 -12.9707 -29.526 -19.4561 -48.6406 -19.4561c-16.3835 0 -29.0127 4.4375 -37.8877 13.3125
c-8.87435 8.87435 -12.9704 21.1621 -12.2881 36.8633c0 15.7018 5.97331 30.2087 17.9199 43.5205s28.5013 19.9678 49.6641 19.9678zM212.992 -64c-34.1335 0 -43.3496 30.3786 -27.6484 91.1357l30.7207 130.048c4.77865 19.1152 4.77865 28.6729 0 28.6729
c-4.09635 0 -13.3125 -3.07227 -27.6484 -9.2168c-14.3359 -6.14388 -26.624 -12.6292 -36.8643 -19.4561l-13.3115 22.5283c30.7201 26.6243 62.9759 48.1283 96.7676 64.5117c33.7923 16.3841 59.5632 24.5762 77.3125 24.5762
c26.6237 0 32.7676 -27.6478 18.4316 -82.9434l-35.8398 -136.192c-5.46159 -21.8451 -4.4375 -32.7676 3.07227 -32.7676c15.0182 0 35.1569 10.2399 60.416 30.7197l15.3594 -20.4805c-28.6719 -29.3548 -58.5384 -51.8828 -89.5996 -67.584
c-31.0612 -15.7012 -54.7839 -23.5518 -71.168 -23.5518z" />
    <glyph glyph-name="instagram" unicode="&#xf123;" 
d="M435.2 422.4c28.1602 0 51.2002 -23.04 51.2002 -51.2002v-358.4c0 -28.1855 -23.04 -51.2002 -51.2002 -51.2002h-358.4c-28.1602 0 -51.2002 23.0146 -51.2002 51.2002v358.4c0 28.1602 23.04 51.2002 51.2002 51.2002h358.4zM255.591 50.6113
c-78.2852 0 -141.799 63.4883 -141.799 141.798c0 8.65332 1.10059 16.999 2.66211 25.1904h-39.6543v-184.729c0 -9.7793 7.93652 -17.6641 17.7412 -17.6641h322.918c9.80469 0 17.7412 7.88477 17.7412 17.6641v184.729h-40.4736
c1.53613 -8.19141 2.63672 -16.5371 2.63672 -25.1904c0 -78.2842 -63.4629 -141.798 -141.772 -141.798zM166.989 192.409c0 -48.9473 39.6543 -88.627 88.627 -88.627c48.9219 0 88.627 39.6797 88.627 88.627s-39.7051 88.6016 -88.627 88.6016
c-48.9473 0 -88.627 -39.6543 -88.627 -88.6016zM417.459 294.4c9.80469 0 17.7412 7.98633 17.7412 17.7402v41.3701c0 9.7793 -7.93652 17.6895 -17.7666 17.6895h-41.3438c-9.75391 0 -17.6895 -7.91016 -17.6895 -17.6895v-41.3955
c0 -9.72852 7.93555 -17.7148 17.7148 -17.7148h41.3438z" />
    <glyph glyph-name="install" unicode="&#xf124;" 
d="M503.72 167.392c7.65625 -19.6855 10.3906 -41.0127 6.5625 -61.793l-15.8584 -96.791c-3.28125 -20.7803 -21.3271 -35.5449 -41.5605 -35.5449h-393.727c-20.2334 0 -38.2793 14.7646 -41.5605 35.5449l-15.8584 96.791
c-3.82812 20.7803 -1.09375 42.1074 6.5625 61.793l86.9473 217.098c6.01562 15.8584 21.874 26.248 38.8262 26.248h66.7148l-10.3896 -111.009h-73.8242l139.445 -115.932l139.445 115.932h-73.8242l-10.3896 111.009h66.7148c16.9521 0 32.8105 -10.3896 38.8252 -26.248
zM446.302 48.7266l9.84277 59.6064c2.73438 15.3115 -8.74902 28.9824 -24.0605 28.9824h-352.168c-15.3115 0 -26.7949 -13.6709 -24.0605 -28.9824l9.84277 -59.6064c2.1875 -12.0303 12.5781 -20.7793 24.6084 -20.7793h331.387
c12.5771 0 22.4209 8.74902 24.6084 20.7793z" />
    <glyph glyph-name="lab-flask" unicode="&#xf125;" 
d="M420.659 64c16.666 -41.5996 59.4688 -102.4 -164.659 -102.4s-181.325 60.8008 -164.659 102.4c52.3516 130.739 113.459 165.197 113.459 230.4v76.7998h-12.7998c-7.06543 0 -12.7998 5.73438 -12.7998 12.7998v25.5996c0 7.06641 5.73438 12.8008 12.7998 12.8008
h128c7.06543 0 12.7998 -5.73438 12.7998 -12.8008v-25.5996c0 -7.06543 -5.73438 -12.7998 -12.7998 -12.7998h-12.7998v-76.7998c0 -65.2031 61.1074 -99.6611 113.459 -230.4zM379.264 19.1748c6.375 1.91992 8.8584 9.29199 6.60547 16.0762
c-5.63281 17.1523 -16.3076 46.7715 -36.1221 79.8975c-16.2812 27.2383 -4.78711 -12.7227 -46.6943 -12.7227s-92.2627 93.5938 -140.8 12.7227c-19.8662 -33.1006 -30.4893 -62.7451 -36.1221 -79.8975c-2.25293 -6.78418 0.230469 -14.1826 6.60547 -16.0762
c17.9707 -5.37598 53.7344 -11.4951 123.264 -11.4951s105.293 6.11914 123.264 11.4951z" />
    <glyph glyph-name="leaf" unicode="&#xf126;" 
d="M487.04 356.173c-111.514 -65.4336 -103.526 -199.834 -181.657 -260.48c-58.8037 -45.6445 -141.773 -22.5273 -189.748 -2.89258c0 0 -32.5117 -41.0361 -55.833 -95.7441c-7.80859 -18.3545 -42.0869 1.86914 -36.0703 17.4082
c76.2363 196.736 335.616 294.887 335.616 294.887s-183.015 7.75684 -305.332 -152.064c-3.27637 36.5059 -8.7041 135.271 86.0166 195.84c128.409 82.2021 373.043 18.3047 347.008 3.04688z" />
    <glyph glyph-name="light-bulb" unicode="&#xf127;" 
d="M183.812 -42.9873l0.511719 55.8057h143.354l0.511719 -55.8057c-20.4785 -12.7998 -43.5176 -21.5029 -72.1885 -20.9912c-28.6709 -0.511719 -51.71 8.19141 -72.1885 20.9912zM325.117 38.417h-138.234c0 111.611 -118.267 149.498 -109.563 260.598
c5.63184 70.1406 53.2461 148.985 178.681 148.985s173.049 -78.8447 178.681 -148.985c8.70312 -111.1 -109.563 -148.986 -109.563 -260.598zM128.006 294.406c-3.07227 -36.3506 21.5029 -59.9014 49.6611 -99.8359c20.9912 -29.1826 41.4707 -59.9014 52.7344 -104.955
h51.1973c11.7754 45.0537 31.7432 75.7725 52.7344 104.955c28.1582 39.9346 49.1494 63.998 46.0781 100.86c-5.12012 66.0449 -50.6865 101.371 -124.411 101.371s-122.875 -35.8379 -127.994 -102.396z" />
    <glyph glyph-name="linkedin" unicode="&#xf128;" 
d="M128 371.2c0 -27.1875 -18.1758 -50.5859 -51.2256 -50.5859c-31.1045 0 -51.1748 22.0674 -51.1748 49.2549c0 27.9033 19.4561 52.5312 51.2002 52.5312s50.5859 -23.2969 51.2002 -51.2002zM25.5996 -38.4004v332.801h102.4v-332.801h-102.4zM179.2 180.634
c0 39.5518 -1.30566 72.6016 -2.61133 101.146h92.0059l4.55762 -44.1094h1.94531c12.9531 20.7617 44.6973 51.2002 97.8428 51.2002c64.8193 0 113.46 -43.3916 113.46 -136.755v-190.516h-102.4v175.642c0 40.8066 -15.5391 71.9365 -51.2002 71.9365
c-27.1865 0 -40.8066 -22.0166 -47.9482 -40.167c-2.61133 -6.50195 -3.25195 -15.5645 -3.25195 -24.6523v-182.759h-102.399v219.034z" />
    <glyph glyph-name="location" unicode="&#xf129;" 
d="M256 448c44.373 0 82.1331 -15.5732 113.28 -46.7197c31.1465 -31.1471 46.7197 -68.9072 46.7197 -113.28c0 -45.2266 -13.2266 -97.0664 -39.6797 -155.52c-26.4538 -58.4538 -53.334 -106.027 -80.6406 -142.721l-39.6797 -53.7598
c-4.26693 5.11979 -10.027 12.5866 -17.2803 22.4004c-7.25326 9.81315 -20.0531 28.7998 -38.3994 56.96c-18.347 28.1595 -34.5605 55.8926 -48.6406 83.1992s-26.8799 58.6667 -38.3994 94.0801c-11.5202 35.4134 -17.2803 67.2002 -17.2803 95.3604
c0 44.373 15.5732 82.1331 46.7197 113.28c31.1471 31.1465 68.9072 46.7197 113.28 46.7197zM256 199.68c23.8932 0 44.3734 8.53353 61.4404 25.6006c17.0664 17.0664 25.5996 37.5462 25.5996 61.4395s-8.5332 44.1598 -25.5996 60.7998
c-17.0671 16.6406 -37.5472 24.9609 -61.4404 24.9609c-23.8932 0 -44.1598 -8.32031 -60.7998 -24.9609c-16.64 -16.64 -24.96 -36.9066 -24.96 -60.7998s8.31999 -44.373 24.96 -61.4395c16.64 -17.0671 36.9066 -25.6006 60.7998 -25.6006z" />
    <glyph glyph-name="magnifying-glass" unicode="&#xf12a;" 
d="M500.185 15.2051c12.3096 -12.3096 16.8457 -27.2109 4.53516 -39.5215l-30.4512 -30.4512c-12.3096 -12.3096 -31.7471 -12.3096 -43.4092 0l-123.1 123.101c-29.8037 -17.4932 -64.1416 -27.2119 -101.072 -27.2119c-110.79 0 -206.679 95.8887 -206.679 206.679
s89.4102 200.2 200.2 200.2s206.679 -95.8887 206.679 -206.679c0 -38.2256 -10.3662 -73.8604 -29.1553 -103.664zM61.5586 247.8c0 -77.0996 68.6777 -145.129 145.129 -145.129c76.4521 0 138.649 62.1982 138.649 138.65c0 77.0996 -68.0283 145.129 -145.128 145.129
c-76.4521 0 -138.65 -62.1982 -138.65 -138.65z" />
    <glyph glyph-name="mail" unicode="&#xf12b;" 
d="M40.2939 312.679c-12.4922 6.73242 -24.3193 32.9209 -1.35645 32.9209h433.127c22.9629 0 11.1357 -26.1885 -1.38281 -32.9209c-12.4932 -6.70703 -185.549 -99.6865 -192 -103.143s-14.7969 -5.09473 -23.1934 -5.09473c-8.39746 0 -16.7432 1.63867 -23.1943 5.09473
s-179.507 96.4355 -192 103.143zM476.493 256.281c10.0088 5.22266 9.90723 -0.895508 9.90723 -5.60645v-186.675c0 -10.752 -14.4902 -25.5996 -25.6006 -25.5996h-409.6c-11.1104 0 -25.6006 14.8477 -25.6006 25.5996v186.701
c0 4.70996 -0.101562 10.8281 9.88184 5.60645c14.208 -7.39844 188.109 -98.5605 196.812 -103.117c8.7041 -4.55664 14.7969 -5.09473 23.1943 -5.09473c8.39648 0 14.4893 0.538086 23.1934 5.09473s183.604 95.6924 197.812 103.091z" />
    <glyph glyph-name="megaphone" unicode="&#xf12c;" 
d="M461.522 276.641c21.9668 -52.2656 34.6546 -101.122 38.0635 -146.57c3.4082 -45.4479 -3.97721 -71.9593 -22.1562 -79.5342c-10.6048 -4.54427 -22.1562 -3.97624 -34.6543 1.7041c-12.498 5.68099 -24.807 13.2559 -36.9268 22.7246
c-12.1191 9.4681 -30.8662 17.2321 -56.2412 23.292s-53.5908 7.57487 -84.6475 4.54492c-10.6042 -1.51497 -18.5576 -5.11296 -23.8604 -10.7939c-5.30208 -5.68099 -6.43815 -12.6875 -3.4082 -21.0195c8.33203 -21.209 17.043 -41.6608 26.1328 -61.3555
c1.51497 -3.78711 6.05957 -7.95312 13.6338 -12.498c7.57487 -4.54492 12.1198 -8.33236 13.6348 -11.3623c5.30208 -12.8763 1.13607 -21.5869 -12.498 -26.1318c-18.9368 -8.33203 -38.2523 -15.9069 -57.9463 -22.7246
c-11.362 -3.78711 -21.5879 4.16634 -30.6777 23.8604c-12.1191 28.7839 -23.1022 53.7803 -32.9492 74.9893c-2.27279 4.54492 -8.71126 7.76432 -19.3154 9.6582c-10.6048 1.89323 -19.3158 7.76335 -26.1328 17.6104
c-11.362 -3.78711 -18.5579 -6.43815 -21.5879 -7.95312c-12.877 -4.54492 -26.89 -2.27246 -42.0391 6.81738c-15.1497 9.08984 -25.3757 20.4518 -30.6777 34.0859c-6.4388 12.1198 -7.38574 27.0798 -2.84082 44.8799c4.54492 17.8008 12.6878 29.3522 24.4287 34.6543
c47.7201 19.694 88.055 40.1455 121.005 61.3545s56.4313 40.7139 70.4443 58.5146c14.0137 17.8001 25.1865 35.2217 33.5186 52.2646c8.33203 17.0436 13.0661 31.8145 14.2021 44.3125s3.97656 23.6706 8.52148 33.5176s11.3623 16.6644 20.4521 20.4521
c18.179 7.57422 42.7965 -5.68164 73.8525 -39.7676s57.946 -77.2614 80.6699 -129.526v0zM445.616 106.21c3.02995 1.51497 4.9235 8.71094 5.68066 21.5879c0.757812 12.877 -1.3252 31.4349 -6.24902 55.6738c-4.92318 24.2389 -12.6872 48.4779 -23.292 72.7168
c-10.6048 24.9967 -23.2923 48.2891 -38.0625 69.877c-14.7708 21.5879 -27.4583 37.4945 -38.0625 47.7197c-10.6048 10.2259 -17.4222 14.5814 -20.4521 13.0664s-4.9235 -9.46842 -5.68066 -23.8604c-0.757812 -14.3913 1.13574 -34.2747 5.68066 -59.6504
c4.54492 -25.375 12.1198 -50.5605 22.7246 -75.5566c10.6042 -24.9967 23.4808 -47.5316 38.6299 -67.6045c15.1497 -20.0729 28.0267 -34.4648 38.6309 -43.1758c10.6048 -8.71094 17.4222 -12.3089 20.4521 -10.7939z" />
    <glyph glyph-name="message" unicode="&#xf12d;" 
d="M460.8 294.4v-179.2c0 -28.1602 -23.04 -51.2002 -51.2002 -51.2002h-102.399v-76.7998l-102.4 76.7998h-102.399c-28.1855 0 -51.2002 23.04 -51.2002 51.2002v179.2c0 28.1592 23.0146 51.1992 51.2002 51.1992h307.199c28.1602 0 51.2002 -23.04 51.2002 -51.1992z
" />
    <glyph glyph-name="mic" unicode="&#xf12e;" 
d="M419.814 252.339v-70.5791c0 -57.2412 -42.0605 -118.502 -138.215 -126.95v-67.6094h66.5605c5.63184 0 10.2402 -4.6084 10.2402 -10.2402v-30.7197c0 -5.6582 -4.63379 -10.2402 -10.2402 -10.2402h-184.32c-5.63184 0 -10.2402 4.6084 -10.2402 10.2402v30.7197
c0 5.63184 4.6084 10.2402 10.2148 10.2402h66.5859v67.6094c-96.2051 8.44824 -138.24 69.709 -138.24 126.95v70.5791c0 5.6582 4.60742 10.2402 10.2402 10.2402h15.3594c5.63184 0 10.2402 -4.60742 10.2402 -10.2402v-70.5791c0 -34.2012 26.957 -92.1602 128 -92.1602
c101.018 0 128 57.959 128 92.1602v70.5791c0 5.6582 4.6084 10.2402 10.2148 10.2402h15.3848c5.63281 0.0253906 10.2148 -4.58203 10.2148 -10.2402zM256 140.8c-60.1084 0 -76.7998 24.7041 -76.7998 40.96v80.8447h153.6v-80.8447
c0 -16.2559 -16.7422 -40.96 -76.7998 -40.96zM332.8 407.04v-108.596h-153.6v108.596c0 16.3076 16.6914 40.96 76.7998 40.96c60.0576 0 76.7998 -24.6523 76.7998 -40.96z" />
    <glyph glyph-name="network" unicode="&#xf12f;" 
d="M135.015 270.976c-7.80859 0 -15.1553 -1.79199 -21.709 -4.96582c-17.9717 19.9678 -33.7666 41.9072 -47.0527 65.459c17.9199 24.3203 40.3711 45.0557 66.0986 60.9541c27.4951 -11.0342 53.2998 -25.3447 77.082 -42.3428
c-1.68945 -4.99219 -2.61133 -10.3428 -2.61133 -15.8975c0 -3.99414 0.486328 -7.91016 1.38281 -11.6484c-21.1973 -15.9482 -40.7812 -33.9707 -58.4453 -53.7598c-4.65918 1.45898 -9.625 2.20117 -14.7451 2.20117zM84.8896 220.877
c0 -11.3408 3.81445 -21.8623 10.2139 -30.2598c-19.6855 -36.6846 -33.9453 -76.748 -41.4717 -119.091c-21.0176 35.251 -33.1514 76.4414 -33.1514 120.448c0 38.041 9.08789 73.958 25.0879 105.753c12.748 -20.3008 27.3145 -39.3467 43.3916 -57.0615
c-2.58594 -6.04199 -4.07031 -12.749 -4.07031 -19.7891zM256.922 384.281c-9.31836 0 -17.9971 -2.55957 -25.4727 -7.01367c-18.3291 13.3115 -37.8359 25.0879 -58.291 35.1992c25.7793 9.70312 53.6836 15.0527 82.8418 15.0527
c42.752 0 82.8418 -11.4424 117.427 -31.3848c-28.6455 -5.50391 -56.166 -14.1572 -82.3037 -25.3955c-8.98535 8.39648 -20.9658 13.542 -34.2012 13.542zM331.827 148.275c-54.4512 8.08984 -105.062 28.2627 -149.018 57.5996
c1.51074 4.76172 2.30371 9.80469 2.30371 15.002c0 9.70215 -2.79004 18.7393 -7.60254 26.3936c15.2832 16.8955 32.1025 32.3584 50.2783 46.1562c8.21777 -5.83594 18.2266 -9.34375 29.1074 -9.34375c6.96289 0 13.5674 1.38281 19.5576 3.94238
c30.1826 -35.8145 53.6064 -77.4658 68.4033 -122.957c-5.47852 -4.53027 -9.90723 -10.291 -13.0303 -16.793zM396.825 80.6143c13.1328 5.70898 23.3477 16.7686 27.7764 30.5156c19.0205 1.79199 37.6572 4.94043 55.834 9.34375
c-15.335 -48.1533 -45.7471 -89.5996 -85.6836 -118.759c2.04785 16.4609 3.12305 33.2031 3.12305 50.2021c0 9.65137 -0.383789 19.2002 -1.0498 28.6973zM320.103 114.586c-64.2822 -32.3584 -117.632 -80.8965 -155.827 -139.597
c-30.7461 13.0039 -58.0869 32.3838 -80.5117 56.4473c4.12109 50.3555 18.4824 97.8438 40.9336 140.391c3.32812 -0.691406 6.7334 -1.0498 10.292 -1.0498c9.57422 0 18.5088 2.73926 26.1367 7.39844c46.9248 -31.7441 100.813 -53.9395 158.977 -63.5898z
M414.105 366.566c47.5645 -43.085 77.4141 -105.344 77.4404 -174.566c0 -11.1875 -0.819336 -22.1953 -2.35547 -32.9473c-21.248 -6.24609 -43.3154 -10.5986 -65.9971 -12.9023c-7.50098 17.7412 -24.9082 30.1826 -45.3115 30.5918
c-16.4355 50.2021 -42.4453 96.0518 -76.0068 135.45c3.25098 6.62988 5.14551 14.0801 5.14551 21.9902c0 1.68945 -0.102539 3.35352 -0.255859 5.04297c33.5361 14.1826 69.5811 23.6797 107.341 27.3408zM345.318 87.834
c4.78711 -3.96875 10.3428 -6.96387 16.3838 -8.90918c0.691406 -8.90918 1.10059 -17.9199 1.10059 -27.0078c0 -25.1396 -2.55957 -49.6895 -7.42383 -73.4463c-30.208 -14.0801 -63.8721 -21.9902 -99.3789 -21.9902c-19.7373 0 -38.8867 2.45703 -57.1904 7.03906
c36.3262 52.916 86.502 96.2051 146.509 124.314z" />
    <glyph glyph-name="open-book" unicode="&#xf130;" 
d="M271.352 318.925c10.3174 7.73828 22.6982 14.4443 37.6592 19.0869c14.96 5.15918 28.373 7.73828 40.7539 9.80176l10.833 -34.0479c-11.8643 -2.06348 -25.2773 -4.64258 -40.7539 -9.80176c-15.4766 -4.64258 -27.3418 -12.3809 -37.1426 -20.1191zM295.082 245.67
c10.3174 7.22266 22.6982 13.9287 37.6592 19.0879c14.96 4.64258 28.373 7.73828 40.7539 9.28516l11.3496 -34.0479c-12.3818 -1.54883 -25.7939 -4.64258 -40.7549 -9.28516c-15.9922 -5.15918 -27.8574 -12.3818 -37.6592 -20.6357zM319.328 171.899
c10.3174 7.22266 22.6982 14.4443 37.6592 19.0879c14.4443 4.64258 28.373 7.73828 40.7539 9.28516l10.834 -34.0479c-12.3818 -1.54883 -25.7939 -4.12695 -40.7549 -9.28516c-15.4766 -5.15918 -27.8574 -12.3818 -37.1426 -20.6357zM136.707 115.669
c11.3496 5.6748 23.7305 11.3496 38.6914 16.5078c14.96 4.64355 28.8887 6.19043 41.7861 6.70703l11.3486 -35.5957c-12.3809 1.03125 -26.3096 0 -41.7861 -5.15918c-15.4756 -5.1582 -27.8564 -10.833 -38.6904 -16.5078zM89.2471 263.21
c10.833 5.6748 23.2139 11.3486 38.1748 15.9922c14.96 5.1582 28.8887 6.70605 41.7861 6.70605l11.3486 -35.5957c-12.3809 1.03223 -26.3096 0 -41.7861 -5.1582c-15.4756 -4.64258 -27.8564 -10.3174 -38.6904 -15.9922zM112.978 189.439
c10.833 5.6748 23.7295 11.3496 38.6904 15.9922c14.96 5.1582 28.8887 6.70605 41.7861 6.70605l11.3496 -35.0791c-12.3818 1.03125 -26.8262 -0.517578 -42.3027 -5.15918c-14.96 -5.1582 -27.8574 -10.833 -38.1748 -16.5078zM283.217 416.941
c65 20.6348 122.778 5.1582 122.778 5.1582l105.239 -325.002c3.61133 -9.80176 -6.19043 -19.6035 -15.9922 -15.9922c-21.1514 7.22168 -55.7148 12.3809 -102.144 -2.58008c-43.8496 -14.4443 -60.874 -45.9131 -67.0645 -67.0635
c-2.5791 -8.25391 -12.8965 -12.3809 -19.6035 -6.70703c-18.0557 13.4131 -50.04 29.4053 -94.4053 14.9609c-46.4287 -15.4766 -71.1914 -39.7227 -84.0879 -58.2939c-5.6748 -8.25391 -19.0879 -6.19043 -22.6982 4.12695l-105.239 324.486
s37.1436 46.4287 102.144 67.5801c44.3652 14.4443 80.9932 3.61133 102.66 -6.70605c10.833 20.6348 34.0479 51.5879 78.4131 66.0322zM280.637 59.4385l-81.5078 249.685c-19.0879 11.3486 -48.4932 21.667 -84.6045 9.80176
c-37.6592 -12.3809 -59.3252 -29.9209 -68.6113 -39.207l84.0879 -257.423c14.4443 11.8652 37.1436 25.7939 69.6436 36.1113c31.9844 10.3174 59.8418 7.22266 80.9922 1.03223zM458.099 129.082l-83.5723 257.423c-12.8965 2.06348 -40.7539 3.61035 -78.4131 -8.77051
c-36.1113 -11.3496 -53.6514 -37.1426 -62.9365 -57.7783l80.9922 -249.169c13.4131 17.54 34.5645 36.1123 66.5488 46.4297s58.8096 12.3809 77.3809 11.8652z" />
    <glyph glyph-name="paper-plane" unicode="&#xf131;" 
d="M477.184 380.569c8.78125 3.09766 14.5928 -2.25293 12.5703 -11.0332c-1.56152 -6.75879 -71.8594 -309.734 -74.3936 -320.64c-2.15039 -9.24219 -11.8018 -12.5449 -19.252 -8.55078c-8.49902 4.55664 -127.539 68.6592 -127.539 68.6592v0l-15.334 8.24316
l11.5713 12.877v0.0507812s198.758 214.938 201.497 217.933c2.73926 2.96973 -1.6123 8.16699 -5.40137 5.40234c-3.7373 -2.76562 -281.19 -206.49 -281.19 -206.49l-57.5996 23.0654v0s-86.9121 34.8164 -97.1777 38.9385
c-8.62695 3.42969 -7.01465 9.70215 0.255859 12.2617c8.57617 3.02148 443.188 156.186 451.993 159.283zM179.2 8.65234v104.039l81.4336 -42.0869s-66.5342 -59.6992 -72.96 -65.5615c-4.91504 -4.4541 -8.47363 -2.6875 -8.47363 3.60938z" />
    <glyph glyph-name="paypal" unicode="&#xf132;" 
d="M196.528 172.658c-21.6182 0 -39.2539 -15.3604 -42.667 -36.4092l-24.4629 -143.36h-78.5059c-8.5332 0 -14.791 7.39551 -13.6533 15.9287l35.8398 232.676l29.0137 187.165c1.70605 11.377 11.377 19.3418 22.7549 19.3418h160.996
c50.6309 0 92.7285 -15.9287 117.19 -43.2354c7.96484 -9.6709 13.6543 -17.6357 17.0674 -26.1689c3.98242 -9.10254 6.25781 -18.7734 6.25781 -29.582v-8.5332c-0.568359 -5.12012 -1.13672 -10.8096 -1.70801 -17.6357
c-0.568359 -2.84473 -1.13672 -5.68945 -1.70703 -9.10254c-18.7734 -95.0049 -76.8008 -141.084 -179.2 -141.084h-47.2158zM455.372 303.502c19.9111 -23.3242 23.3252 -56.3193 15.9287 -95.5732c-18.7725 -95.0039 -81.9199 -128 -163.271 -128h-12.5156
c-9.6709 0 -18.2041 -7.39551 -19.9111 -17.0664l-0.568359 -5.68945l-15.9287 -100.124l-1.13672 -3.98242c-1.13965 -9.6709 -9.67285 -17.0664 -19.9131 -17.0664h-82.4883l31.2881 195.129c1.13672 4.55078 5.12012 7.96484 9.67188 7.96484h47.2178
c116.053 0 188.871 56.8887 211.626 164.408z" />
    <glyph glyph-name="pinterest" unicode="&#xf133;" 
d="M220.595 109.389c-13.4648 -70.502 -29.875 -138.086 -78.54 -173.389c-15.002 106.547 22.041 186.547 39.2705 271.488c-29.3633 49.4082 3.53223 148.787 65.4072 124.288c76.1602 -30.1064 -65.9453 -183.604 29.4404 -202.804
c99.6094 -19.9932 140.263 172.8 78.4893 235.494c-89.2158 90.5732 -259.737 2.125 -238.745 -127.539c5.09375 -31.6924 37.8369 -41.293 13.0811 -85.043c-57.1133 12.6465 -74.1631 57.7021 -71.9609 117.76c3.53223 98.3047 88.2939 167.092 173.337 176.641
c107.546 12.0576 208.486 -39.501 222.438 -140.646c15.6934 -114.202 -48.5371 -237.901 -163.558 -228.992c-31.1816 2.43164 -44.2373 17.8945 -68.6602 32.7422z" />
    <glyph glyph-name="price-tag" unicode="&#xf134;" 
d="M496.333 437.632c27.8525 -80.1025 -22.3232 -145.562 -70.6562 -182.604l8.85742 -12.6973c4.88965 -6.98926 6.60547 -19.252 3.78906 -27.29l-25.5488 -80.5117c-2.81641 -8.06445 -10.8027 -18.6113 -17.7148 -23.501l-240.486 -168.653
c-11.6738 -8.14062 -24.7559 -9.54883 -32.9473 2.09961l-109.287 156.365c-8.14062 11.6992 -5.32422 27.75 6.32324 35.9424l240.486 168.627c6.96387 4.91504 19.584 8.80664 28.084 8.65234l81.6123 0.358398c8.49902 -0.102539 19.4307 -5.91309 24.3203 -12.9023
l14.541 -20.8379c35.9932 27.3408 83.1992 78.3867 59.417 146.739c-2.79004 8.06348 1.45898 16.9209 9.52344 19.7119c8.06348 2.79004 16.8447 -1.45996 19.6865 -9.49805zM384.436 198.067c13.4395 9.44629 19.4814 25.3945 16.998 40.6016
c-5.55566 -3.30273 -10.8799 -6.09277 -15.8467 -8.44824c-2.125 -0.998047 -4.37695 -1.51074 -6.5791 -1.51074c-5.78516 0 -11.3408 3.30273 -14.0029 8.90918c-3.63574 7.70605 -0.333008 16.9473 7.37305 20.6084c0.895508 0.383789 5.68262 2.84082 12.6465 7.04004
c-13.8242 10.0605 -33.0244 10.8027 -47.8213 0.43457c-18.6367 -13.1074 -23.1934 -38.8096 -10.1123 -57.4971c13.0312 -18.6367 38.7334 -23.1943 57.3447 -10.1377z" />
    <glyph glyph-name="rocket" unicode="&#xf135;" 
d="M305.484 113.434c12.9541 -113.101 -8.60156 -104.857 -126.976 -156.467c-22.6045 -9.85645 -30.3613 6.14355 -24.0127 23.7051c6.32324 17.5361 20.3008 56.2949 20.3008 56.2949l-66.3037 67.7881s-37.8369 -14.3105 -54.9893 -20.7617
c-17.1523 -6.50195 -32.7939 1.45996 -23.1426 24.5508c50.4326 121.14 42.3936 143.181 152.935 129.945c0 0 127.411 184.909 273.255 164.403c3.22559 -0.43457 5.34961 -1.53613 6.73242 -2.94336c1.35645 -1.4082 2.43164 -3.61035 2.86719 -6.86133
c20.0449 -149.248 -160.666 -279.654 -160.666 -279.654zM331.315 264.883c15.2832 -15.6416 40.1152 -15.6416 55.4492 0c15.3086 15.7188 15.3086 41.1143 0 56.7559c-15.334 15.6416 -40.1406 15.6416 -55.4492 0c-15.3086 -15.6934 -15.3086 -41.0625 0 -56.7559z" />
    <glyph glyph-name="rss" unicode="&#xf136;" 
d="M61.4404 386.56c214.886 0 389.094 -174.208 389.094 -389.094h-60.6465c0 181.401 -147.046 328.499 -328.447 328.499v60.5947zM61.4404 265.293c147.891 0 267.801 -119.937 267.801 -267.853h-60.6201c0 114.457 -92.7744 207.206 -207.181 207.206v60.6465z
M119.526 113.689c32.1025 0 58.0869 -26.0352 58.0869 -58.1377s-25.9844 -58.1113 -58.0869 -58.1113s-58.1123 26.0352 -58.1123 58.1113c0 32.0771 26.0098 58.1377 58.1123 58.1377z" />
    <glyph glyph-name="skype" unicode="&#xf137;" 
d="M487.467 137.6c9.06641 -18.666 13.8662 -39.4668 13.8662 -61.8662c0 -77.333 -60.7998 -139.733 -135.467 -139.733c-23.4658 0 -45.333 5.86719 -64.5332 16.5332c-13.8662 -2.66602 -28.2666 -3.7334 -42.666 -3.7334c-129.067 0 -234.134 107.733 -234.134 240.533
c0 16.5342 1.60059 33.0674 4.7998 48.5342c-11.7334 20.7998 -18.666 44.7998 -18.666 70.3994c0 77.333 60.7998 139.733 136 139.733c26.1328 0 51.1992 -8 72 -21.333c12.7998 2.13184 26.1328 3.7334 40 3.7334c129.066 0 234.133 -108.268 234.133 -241.067
c0 -17.5996 -2.13281 -35.2002 -5.33301 -51.7334zM378.667 74.1328c10.666 16 16.5332 34.1338 16.5332 53.8672c0 16.5332 -3.2002 30.9336 -9.60059 42.667c-6.39941 11.2002 -15.4658 20.7998 -26.666 28.2666c-10.667 7.4668 -24.5332 13.8662 -40 19.1992
c-15.4668 4.80078 -32.5332 9.60059 -51.7334 13.8672c-14.9336 3.2002 -25.6006 6.40039 -32 8c-6.40039 1.59961 -12.7998 4.2666 -19.2002 7.4668c-5.86621 3.2002 -10.667 6.93359 -13.8662 11.2002c-3.2002 3.7334 -4.80078 8 -4.80078 13.8662
c0 9.06641 4.80078 16.5332 14.9336 22.9336c9.59961 6.93359 23.4668 10.1328 40.5332 10.1328c17.6006 0 30.9336 -2.66602 38.9336 -9.06641s14.9336 -15.4668 20.7998 -26.666c5.33301 -9.06738 9.60059 -15.4668 13.8672 -19.2002
c4.7998 -4.2666 11.7334 -6.40039 20.2666 -6.40039c9.59961 0 17.5996 3.2002 24 10.1338c6.39941 6.93262 9.59961 14.9326 9.59961 23.4668c0 9.06641 -2.13281 18.1328 -6.93359 27.1992c-4.7998 9.60059 -12.7998 18.1338 -22.9326 26.667
c-10.1338 8 -23.4668 14.9336 -38.9336 19.7334c-14.9336 4.7998 -33.6006 7.4668 -54.4004 7.4668c-26.1328 0 -49.0664 -3.7334 -68.7998 -11.2002s-34.667 -18.667 -45.333 -32.5332c-10.667 -14.4004 -16 -30.4004 -16 -48.5332
c0 -19.2002 5.33301 -35.7334 15.4668 -48.5342c9.59961 -12.7998 23.4658 -22.9326 40 -30.3994c16.5332 -6.93359 36.7998 -13.333 61.333 -18.667c17.5996 -3.7334 32.5332 -7.4668 43.2002 -10.666c10.1328 -3.7334 18.1328 -8.5332 24.5332 -14.4004
c6.39941 -5.86719 9.06641 -13.333 9.06641 -22.9336c0 -11.7334 -5.33301 -21.8662 -17.0664 -29.8662c-12.2666 -8.5332 -27.7334 -12.7998 -47.4668 -12.7998c-13.8662 0 -25.0664 2.13184 -33.5996 6.39941c-8.53418 3.7334 -14.9336 9.06738 -19.7334 15.4668
c-4.80078 6.40039 -9.60059 14.9336 -13.334 24.5332c-3.7334 9.06738 -8.5332 16 -13.8662 20.7998c-5.86719 4.80078 -12.7998 7.4668 -20.7998 7.4668c-9.60059 0 -17.6006 -3.19922 -24 -9.59961c-6.93359 -6.40039 -10.1338 -13.8672 -10.1338 -22.9336
c0 -13.8662 5.33301 -28.7998 14.9336 -43.2002c10.1328 -14.9326 22.9336 -26.666 38.9336 -35.2002c21.8662 -12.2656 50.1328 -18.1328 83.7334 -18.1328c27.7324 0 52.2666 4.2666 73.0664 13.333c20.7998 8.53418 36.7998 21.334 47.4668 36.7998z" />
    <glyph glyph-name="soundcloud" unicode="&#xf138;" 
d="M17.2031 113.792c-0.230469 -1.15234 -2.35547 -1.94531 -4.91504 -1.91992c-2.58594 0 -4.68457 0.793945 -4.88965 1.94531l-7.39844 35.8398l7.42383 37.0439c0.179688 1.10059 2.27832 1.94531 4.88965 1.94531c2.53418 0 4.65918 -0.844727 4.88965 -1.94531
l8.39648 -37.0439zM69.709 93.9004c-0.230469 -2.20117 -2.91895 -3.89062 -6.11816 -3.89062c-3.25195 0 -5.93945 1.68945 -6.09277 3.89062l-6.29785 55.3984l6.29785 85.709c0.12793 2.15039 2.84082 3.8916 6.09277 3.8916c3.19922 0 5.8877 -1.74121 6.11816 -3.8916
l7.09082 -85.709zM122.061 94.7969c-0.15332 -2.68848 -3.30176 -4.78711 -7.21875 -4.8125c-3.8916 0 -7.04004 2.12402 -7.19336 4.76074l-5.24805 54.5029l5.24805 114.1c0.15332 2.71289 3.30176 4.8125 7.19336 4.8125c3.91699 0 7.06543 -2.09961 7.21875 -4.8125
l5.93945 -114.1zM174.336 95.5908c-0.12793 -3.2002 -3.7373 -5.63281 -8.19238 -5.6582c-4.47949 0 -8.08887 2.50879 -8.19141 5.6582l-4.35254 53.6572l4.32715 114.944c0.12793 3.14844 3.71191 5.65723 8.2168 5.65723c4.45508 0 8.06445 -2.50879 8.19238 -5.65723
l4.86426 -114.944zM226.56 96.3076c-0.101562 -3.66113 -4.19824 -6.55371 -9.16406 -6.55371c-4.9668 0 -9.0625 2.94336 -9.13965 6.55371l-3.45605 52.9404l3.45605 131.737c0.0771484 3.60938 4.17285 6.55371 9.13965 6.55371
c4.96582 0 9.0625 -2.89258 9.16406 -6.52832l3.84082 -131.813zM263.091 89.7021c-3.91602 0.410156 -7.04004 3.63574 -7.09082 7.55273v202.495c0.0507812 3.76367 1.35645 5.6582 6.37402 7.55273c12.8008 4.76172 27.3154 7.60254 42.1895 7.60254
c60.8252 0 110.694 -45.1064 115.942 -102.604c7.85938 3.14844 16.4609 4.94043 25.4971 4.94043c36.4551 0 65.9971 -28.5439 65.9971 -63.7949s-29.542 -63.8467 -65.9971 -63.8467c-1.15137 0 -182.707 0.102539 -182.912 0.102539z" />
    <glyph glyph-name="star" unicode="&#xf139;" 
d="M256 414.72l61.1328 -172.083h164.147l-133.939 -101.068l47.8975 -177.357l-139.238 106.343l-139.213 -106.343l47.8721 177.357l-133.965 101.068h164.147z" />
    <glyph glyph-name="star-outlined" unicode="&#xf13a;" 
d="M481.28 242.637l-133.914 -101.043l47.8467 -177.383l-139.213 106.343l-139.264 -106.343l47.8975 177.383l-133.939 101.043h164.147l61.1582 172.083l61.1074 -172.083h164.173zM256 120.755l77.1074 -64l-31.8213 91.1875l72.9863 58.8799l-90.1377 -2.58594
l-28.1348 103.425l-28.1602 -103.425l-90.1631 2.58594l72.9854 -58.8799l-31.8203 -91.1875z" />
    <glyph glyph-name="thumbs-down" unicode="&#xf13b;" 
d="M162.611 124.467c-3.35352 9.11426 -111.411 8.5 -111.411 43.4951c0 34.8926 50.7646 254.438 85.8105 254.438c95.5908 0 221.39 -34.458 221.39 -66.9951v-175.155c0 -27.0596 -79.335 -76.0068 -113.408 -99.0215
c-61.7988 -41.6514 -105.318 -133.709 -118.145 -117.811c-54.835 68.0186 39.168 151.936 35.7637 161.049zM384 126.899c-16.8193 0 25.5996 15.1289 25.5996 60.3906v163.148c0 43.2129 -42.4189 57.8555 -25.5996 57.8555c16.8447 0 76.7998 -7.67969 76.7998 -77.3369
v-124.109c0 -69.708 -59.9551 -79.9482 -76.7998 -79.9482z" />
    <glyph glyph-name="thumbs-up" unicode="&#xf13c;" 
d="M349.389 259.533c3.35352 -9.11426 111.411 -8.5 111.411 -43.5205c0 -34.8672 -50.7646 -254.413 -85.8105 -254.413c-95.5908 0 -221.39 34.458 -221.39 66.9951v175.155c0 27.0596 79.335 76.0068 113.434 98.9951c61.7988 41.6777 105.318 133.735 118.145 117.837
c54.8096 -68.0186 -39.1934 -151.961 -35.7891 -161.049zM128 257.101c16.8193 0 -25.5996 -15.1289 -25.5996 -60.3906v-163.148c0 -43.2129 42.4189 -57.8555 25.5996 -57.8555c-16.8447 0 -76.7998 7.67969 -76.7998 77.3369v124.109
c0 69.708 59.9551 79.9482 76.7998 79.9482z" />
    <glyph glyph-name="traffic-cone" unicode="&#xf13d;" 
d="M255.754 137.131c-31.9629 0 -59.6637 4.79427 -83.1025 14.3828c-23.4395 9.58919 -35.8695 21.1315 -37.29 34.627c15.6263 44.0371 25.5703 72.0931 29.832 84.168c3.55143 -9.94401 14.028 -18.1123 31.4297 -24.5049s37.112 -9.58887 59.1309 -9.58887
c22.7285 0 42.6162 3.19629 59.6631 9.58887s27.3457 14.5609 30.8965 24.5049c4.26172 -12.0749 14.2057 -40.1309 29.832 -84.168c-1.42057 -13.4954 -13.8503 -25.0378 -37.2891 -34.627c-23.4395 -9.58854 -51.1403 -14.3828 -83.1025 -14.3828zM255.754 315.056
c-34.0938 0 -56.1126 7.81315 -66.0566 23.4395l27.7012 75.6445c3.55143 12.0749 16.3366 18.1123 38.3555 18.1123c22.0182 0 35.1582 -6.03743 39.4199 -18.1123c4.26172 -13.4954 13.1403 -38.7103 26.6357 -75.6445
c-9.94401 -15.6263 -31.9626 -23.4395 -66.0557 -23.4395zM490.146 110.495c14.2057 -5.68164 21.486 -12.9619 21.8408 -21.8408c0.355469 -8.87826 -6.21452 -17.224 -19.71 -25.0371l-187.514 -100.149c-13.4954 -7.81315 -29.6543 -11.7197 -48.4766 -11.7197
s-34.9811 3.90658 -48.4766 11.7197l-188.579 100.149c-13.4948 7.10286 -19.887 15.2712 -19.1768 24.5049s8.16797 16.6914 22.373 22.373l100.149 40.4863l-11.7197 -31.9629c0 -17.0462 14.2057 -31.6068 42.6172 -43.6816
c28.4108 -12.0749 62.5042 -18.1123 102.28 -18.1123c39.7754 0 73.8685 6.03743 102.279 18.1123c28.4115 12.0749 42.9723 26.6354 43.6826 43.6816l-11.7197 31.9629z" />
    <glyph glyph-name="tree" unicode="&#xf13e;" 
d="M512 192c0 -74.3164 -87.9355 -136.294 -204.774 -150.502v-28.6982c0 -32 46.3877 -49.4082 46.3877 -49.4082c2.66211 -0.998047 3.17383 -3.42969 1.17676 -5.42676l-18.3545 -18.3555c-1.99707 -1.99609 -5.81152 -2.8418 -8.42285 -1.86816
c0 0 -30.4385 11.0586 -62.4385 11.0586s-44.7744 -12.7998 -60.7744 -12.7998s-23.8076 20.7871 -23.8076 20.7871c-0.999023 2.66211 0.255859 5.83691 2.79004 7.09082c0 0 46.6182 23.3223 46.6182 48.9219v26.3682c-129.357 7.70605 -230.4 73.165 -230.4 152.832
c0 34.8418 19.4053 66.9697 51.9932 92.7236c0.0517578 0.0253906 0.102539 0.0253906 0.128906 0.0761719c9.2666 91.4434 96.9463 163.2 203.878 163.2s194.611 -71.7568 203.878 -163.2c0.0263672 -0.0507812 0.0771484 -0.0507812 0.128906 -0.0761719
c32.5879 -25.7539 51.9932 -57.8818 51.9932 -92.7236zM51.2002 192c0 -52.2236 78.2334 -95.2061 179.226 -101.479v19.584c0 2.81641 -1.71582 6.63086 -3.83984 8.49902l-69.1201 60.4424c-2.09961 1.84277 -2.22754 4.99121 -0.230469 6.98828l8.75488 8.75488
c1.99707 1.99707 5.6582 2.53516 8.14062 1.22949l51.7637 -27.2383c2.50879 -1.30566 4.53125 -0.0771484 4.53125 2.73828v66.5605c0 2.81641 2.17578 5.83691 4.83789 6.73242l67.0977 22.375c2.68848 0.895508 4.86426 -0.691406 4.86426 -3.50781v-92.1338
c0 -2.8418 1.97168 -3.96875 4.42871 -2.53516l45.543 26.8037c2.40625 1.43359 4.40234 0.28125 4.40234 -2.53418v-21.7861c0 -2.81543 -1.68945 -6.68164 -3.7373 -8.62695l-46.9248 -44.1855c-2.04785 -1.91992 -3.71191 -5.81152 -3.71191 -8.62695v-17.1016
c88.2686 11.3926 153.574 51.3281 153.574 99.0469c0 26.0859 -19.6602 49.792 -51.7373 67.8652c0.230469 2.96973 0.537109 5.93945 0.537109 8.93457c0 70.707 -68.7871 128 -153.6 128s-153.6 -57.293 -153.6 -128c0 -2.99512 0.306641 -5.96484 0.5625 -8.93457
c-32.1025 -18.0732 -51.7627 -41.7793 -51.7627 -67.8652z" />
    <glyph glyph-name="trophy" unicode="&#xf13f;" 
d="M288.835 70.6787v-36.1738c52.3125 -6.12207 91.2695 -25.6006 91.2695 -48.418c0 -27.8262 -55.6523 -50.0869 -124.104 -50.0869s-123.548 22.2607 -123.548 50.0869c0 22.8174 38.4004 42.2959 90.7129 48.418v36.1738c0 40.626 -30.6084 62.8867 -80.6953 95.7217
c-60.6611 40.626 -136.904 91.2695 -136.904 210.365c0 11.1299 8.9043 19.4775 19.4785 19.4775h95.7217c13.3564 25.0439 53.4258 51.7568 135.234 51.7568s121.878 -26.7129 135.234 -51.7568h95.7227c10.5732 0 19.4775 -8.34766 19.4775 -19.4775
c0 -119.096 -76.2432 -169.739 -136.904 -210.365c-50.0869 -32.835 -80.6953 -55.0957 -80.6953 -95.7217zM366.191 211.479c48.417 32.835 93.4951 70.6777 100.174 145.809h-70.1221c-1.66895 -67.3389 -14.4697 -112.418 -30.0518 -145.809zM256 414.052
c-76.2432 0 -105.739 -31.165 -105.739 -42.8516c0 -11.6875 29.4961 -42.2959 105.739 -42.2959s105.739 30.6084 105.739 42.2959c0 11.6865 -29.4961 42.8516 -105.739 42.8516zM45.6348 357.287c6.67871 -75.1309 51.7568 -112.974 100.174 -145.809
c-15.582 33.3906 -28.3828 78.4697 -30.0518 145.809h-70.1221z" />
    <glyph glyph-name="tumblr" unicode="&#xf140;" 
d="M399.36 -17.8174c-19.8916 -9.49805 -37.8887 -16.1543 -53.9912 -19.9941c-16.1279 -3.78809 -33.5615 -5.70801 -52.3008 -5.70801c-21.2734 0 -40.0889 2.73828 -56.4473 8.14062c-16.3584 5.45215 -30.2852 13.209 -41.8564 23.2441
c-11.5459 10.1123 -19.5586 20.7871 -24.0127 32.1025c-4.4541 11.3408 -6.68164 27.8018 -6.68164 49.3057v165.248h-51.4307v66.6621c18.2783 5.99121 33.9463 14.5928 46.9766 25.8564c13.0557 11.2129 23.501 24.7041 31.4111 40.4482
c7.88477 15.6924 13.2861 35.7373 16.2812 60.0312h66.1758v-119.091h110.438v-73.9072h-110.438v-120.807c0 -27.2891 1.43359 -44.8506 4.30078 -52.6074c2.8418 -7.75684 8.16699 -13.9521 15.9238 -18.5605c10.3164 -6.24609 22.0928 -9.39453 35.3535 -9.39453
c23.5518 0 47.002 7.75684 70.2979 23.2441v-74.2139z" />
    <glyph glyph-name="twitter" unicode="&#xf141;" 
d="M443.29 288.103c0.204102 -4.14746 0.28125 -8.3457 0.28125 -12.4932c0 -127.744 -97.2031 -274.995 -274.944 -274.995c-54.6045 0 -105.369 16 -148.146 43.4434c7.57715 -0.896484 15.2568 -1.35645 23.0391 -1.35645c45.3125 0 86.9639 15.4619 120.014 41.3438
c-42.2656 0.793945 -77.9775 28.6973 -90.2656 67.0977c5.8877 -1.10059 11.9551 -1.68945 18.1758 -1.68945c8.83203 0 17.3818 1.15137 25.4717 3.35352c-44.2109 8.9082 -77.5166 47.9482 -77.5166 94.7969v1.20312c13.0303 -7.24512 27.9551 -11.5967 43.7764 -12.1094
c-25.9336 17.3574 -43.0088 46.8994 -43.0088 80.4609c0 17.6895 4.76172 34.3037 13.1074 48.5889c47.6416 -58.4961 118.887 -96.9473 199.193 -100.992c-1.6377 7.0918 -2.48242 14.4385 -2.48242 22.042c0 53.3506 43.2383 96.5889 96.6143 96.5889
c27.8018 0 52.915 -11.6992 70.5537 -30.4893c21.9902 4.35156 42.6748 12.3896 61.3633 23.4492c-7.21973 -22.5537 -22.5537 -41.498 -42.4961 -53.4531c19.5576 2.35547 38.1436 7.50098 55.5 15.207c-12.9531 -19.4053 -29.3369 -36.4033 -48.2295 -49.9971z" />
    <glyph glyph-name="upload-to-cloud" unicode="&#xf142;" 
d="M389.453 278.042c67.6602 0 122.547 -53.6328 122.547 -119.834c0 -66.1504 -54.8867 -119.808 -122.547 -119.808h-82.2529v102.399h64l-115.2 128l-115.2 -128h64v-102.399h-112.205c-51.1484 0 -92.5947 40.5498 -92.5947 90.5469s41.4463 90.4961 92.5947 90.4961
c3.73828 0 7.37305 -0.255859 10.9824 -0.691406c-0.946289 6.34863 -1.45898 12.7998 -1.45898 19.3535c0 73.498 60.9541 133.095 136.192 133.095c61.6191 0 113.639 -39.9873 130.432 -94.8994c6.7334 1.10059 13.6445 1.74121 20.7109 1.74121z" />
    <glyph glyph-name="v-card" unicode="&#xf143;" 
d="M486.4 371.2c14.3359 0 25.5996 -11.2646 25.5996 -25.6006v-307.199c0 -14.3359 -11.2637 -25.6006 -25.5996 -25.6006h-460.801c-14.3359 0 -25.5996 11.2646 -25.5996 25.6006v307.199c0 14.3359 11.2637 25.6006 25.5996 25.6006h460.801zM332.8 268.8v-25.5996
h102.4v25.5996h-102.4zM281.6 69.1201v250.88h-230.399v-249.856c3.07227 2.04883 6.65625 4.6084 12.2881 6.65625c30.208 12.7998 75.7754 32.2559 75.7754 55.8086c0 13.8232 -9.21582 9.21582 -13.3115 35.3271c-2.04785 10.7529 -9.72852 0 -11.7764 24.5762
c0 9.72852 4.6084 12.2881 4.6084 12.2881s-2.04785 14.3359 -3.07227 25.0879c-0.511719 9.21582 3.07227 26.1123 17.4082 36.8643c17.4082 12.2881 24.5762 29.1836 56.3203 27.6484c-14.3369 -7.68066 -11.2646 -5.63281 -6.65625 -10.752
c27.1357 -7.68066 33.792 -41.9844 32.7676 -53.7607c-1.02344 -10.752 -3.07129 -25.0879 -3.07129 -25.0879s4.60742 -2.55957 4.60742 -12.2881c-1.53613 -24.5762 -9.72754 -13.8232 -11.7764 -24.5762c-3.58398 -26.1113 -12.7998 -21.5039 -12.7998 -35.3271
c0 -23.5527 45.5684 -43.0088 75.7764 -55.8086c5.63184 -2.55957 10.2402 -5.12012 13.3115 -7.67969zM460.8 166.4v25.5996h-128v-25.5996h128z" />
    <glyph glyph-name="video" unicode="&#xf144;" 
d="M512 320h-51.2002v-51.2002h51.2002v-51.2002h-51.2002v-51.1992h51.2002v-51.2002h-51.2002v-51.2002h51.2002v-30.6943c0 -11.3154 -9.13965 -20.5059 -20.4541 -20.5059h-471.04c-11.3408 0 -20.5059 9.19043 -20.5059 20.5059v30.6943h51.2002v51.2002h-51.2002
v51.2002h51.2002v51.1992h-51.2002v51.2002h51.2002v51.2002h-51.2002v30.7451c0 11.3154 9.16504 20.4551 20.5059 20.4551h471.04c11.3145 0 20.4541 -9.13965 20.4541 -20.4551v-30.7451zM204.8 115.2l128 76.7998l-128 76.7998v-153.6z" />
    <glyph glyph-name="vimeo" unicode="&#xf145;" 
d="M484.096 298.496c-25.7529 -147.789 -169.6 -272.896 -212.863 -301.491c-43.2646 -28.5439 -82.7656 11.4434 -97.0752 41.7539c-16.4102 34.4824 -65.5107 221.593 -78.3877 237.081c-12.877 15.5137 -51.4561 -15.4883 -51.4561 -15.4883l-18.7139 24.9863
s78.3623 95.3594 138.01 107.289c63.2324 12.6211 63.1299 -98.918 78.3359 -160.819c14.6943 -59.9551 24.6016 -94.208 37.4531 -94.208s37.4268 33.4082 64.3076 84.6084c26.9561 51.3027 -1.15234 96.5635 -53.7861 64.3584
c21.0693 128.691 219.93 159.642 194.176 11.9297z" />
    <glyph glyph-name="warning" unicode="&#xf146;" 
d="M499.481 -12.2881c3.07227 -5.40137 3.02051 -12.0576 -0.15332 -17.4082c-3.1748 -5.40137 -9.03711 -8.7041 -15.3086 -8.7041h-456.039c-6.29688 0 -12.1084 3.30273 -15.3086 8.7041c-3.17383 5.35059 -3.22559 12.0068 -0.12793 17.4082l227.994 425.779
c3.14844 5.50391 9.03613 8.90918 15.4619 8.90918c6.40039 0 12.2881 -3.40527 15.4619 -8.90918zM281.6 12.7998v51.2002h-51.1992v-51.2002h51.1992zM281.6 102.4v166.399h-51.1992v-166.399h51.1992z" />
    <glyph glyph-name="xing" unicode="&#xf147;" 
d="M453.197 422.4c12.7998 0 12.3135 -9.75391 9.11328 -16.1543c-3.2002 -6.39941 -4.71094 -9.44629 -4.71094 -9.44629l-128 -256l76.8008 -153.6s1.48438 -3.04688 4.68457 -9.44629c3.2002 -6.40039 3.71191 -16.1543 -9.08789 -16.1543h-72.3975
c-5.70801 0 -14.1309 2.71387 -17.6641 9.75391c-3.53223 7.04004 -7.93555 15.8467 -7.93555 15.8467l-76.7998 153.6l128 256s4.42871 8.78125 7.93555 15.8467c3.50781 7.06543 11.9551 9.75391 17.6641 9.75391h72.3975zM174.464 310.246
c3.5332 -7.04004 7.93652 -15.8457 7.93652 -15.8457l32 -64l-57.6006 -115.2s-4.40332 -8.80664 -7.91016 -15.8467c-3.5332 -7.04004 -11.9805 -9.75391 -17.6895 -9.75391h-72.3975c-12.7998 0 -12.3135 9.75391 -9.11328 16.1543
c3.2002 6.39941 4.71094 9.44629 4.71094 9.44629l57.5996 115.2l-32 64s-1.48438 3.0459 -4.68457 9.44629c-3.2002 6.39941 -3.71191 16.1533 9.08789 16.1533h72.3965c5.70898 0 14.1572 -2.68848 17.6641 -9.75391z" />
    <glyph glyph-name="youtube" unicode="&#xf148;" 
d="M256 389.12c251.597 0 256 -22.375 256 -197.12s-4.40332 -197.12 -256 -197.12s-256 22.375 -256 197.12s4.40332 197.12 256 197.12zM338.048 183.449c10.0605 4.71094 10.0605 12.3906 0 17.1016l-114.944 53.6572
c-10.0605 4.65918 -18.3037 -0.588867 -18.3037 -11.6738v-101.068c0 -11.1104 8.24316 -16.333 18.3037 -11.6738z" />
    <glyph glyph-name="zoom" unicode="&#xf14a;" 
d="M76.7773 448h358.445c42.5469 0 76.7773 -34.2305 76.7773 -76.7773v-358.445c0 -42.5469 -34.2305 -76.7773 -76.7773 -76.7773h-358.445c-42.5469 0 -76.7773 34.2305 -76.7773 76.7773v358.445c0 42.5469 34.2305 76.7773 76.7773 76.7773zM430 291.111
c-1.97559 -0.0410156 -4.3252 -1.22168 -6.94434 -3.38867l-80.4443 -58.7783v-74.0557l80.4443 -58.6113c2.8877 -2.16895 5.95508 -3.64258 8.33301 -3.05469c2.37891 0.586914 4.05566 3.20508 4.05566 9.16602v179.223c0 6.54883 -2.15234 9.56836 -5.44434 9.5z
M80.4443 291c-5.53809 0 -10 -4.46875 -10 -9.88867v-133.667c0.0595703 -15.1133 6.21582 -28.7666 16.167 -38.6113c9.9502 -9.84473 23.668 -15.8945 38.7217 -15.833h194.834c5.53809 0 10 4.46875 10 9.88867v133.667
c-0.0595703 15.1133 -6.2168 28.7666 -16.167 38.6113s-23.6699 15.8945 -38.7227 15.833h-194.833z" />
  </font>
</defs>
</svg>
